Начать новую тему Ответить на тему
Статистика раздачи
Размер: 458.01 МБ | Добавлен: 26 июн 2020, 16:53 | Скачали: 0
Сидеров: 0  [0 байт/сек]    Личеров: 0  [0 байт/сек]
Пред. тема | След. тема 

Автор
Сообщение

СообщениеДобавлено: 26 июн 2020, 16:53 

Ответить с цитатой 

Ivory Frequency / Plug-In
Жанр: EBM, Industrial
Страна-производитель диска: Germany
Год издания диска: 2002
Издатель (лейбл): Dependent
Номер по каталогу: CD 085-50272
Страна: Greece
Аудиокодек: FLAC (*.flac)
Тип рипа: image+.cue
Битрейт аудио: lossless
Продолжительность: 49:06
Источник (релизер): cd from personal collection
Наличие сканов в содержимом раздачи: да
Треклист:
1 Plug-In 3:55
2 The Strangest Callings 5:57
3 Beasts & Demons 5:27
4 Dancing Troops 5:37
5 See The Light 5:26
6 Today 7:15
7 Clock Is Ticking Fast 7:26
8 Ydrosis 8:00
Код:
Exact Audio Copy V1.0 beta 1 from 15. November 2010
EAC extraction logfile from 13. October 2011, 13:57
Ivory Frequency / Plug-In
Used drive  : HL-DT-STBDDVDRW GGC-H20L   Adapter: 3  ID: 0
Read mode               : Secure
Utilize accurate stream : Yes
Defeat audio cache      : Yes
Make use of C2 pointers : No
Read offset correction                      : 667
Overread into Lead-In and Lead-Out          : No
Fill up missing offset samples with silence : Yes
Delete leading and trailing silent blocks   : No
Null samples used in CRC calculations       : Yes
Used interface                              : Native Win32 interface for Win NT & 2000
Used output format              : User Defined Encoder
Selected bitrate                : 896 kBit/s
Quality                         : High
Add ID3 tag                     : No
Command line compressor         : C:\Program Files (x86)\Exact Audio Copy\FLAC\FLAC.EXE
Additional command line options : -6 -V -T "ARTIST=%a" -T "TITLE=%t" -T "ALBUM=%g" -T "DATE=%y" -T "TRACKNUMBER=%n" -T "GENRE=%m" -T "COMMENT=%e" %j--picture="%i"%j %s -o %d
TOC of the extracted CD
     Track |   Start  |  Length  | Start sector | End sector
    ---------------------------------------------------------
        1  |  0:00.00 |  3:55.58 |         0    |    17682
        2  |  3:55.58 |  5:57.07 |     17683    |    44464
        3  |  9:52.65 |  5:27.45 |     44465    |    69034
        4  | 15:20.35 |  5:37.09 |     69035    |    94318
        5  | 20:57.44 |  5:26.43 |     94319    |   118811
        6  | 26:24.12 |  7:15.00 |    118812    |   151436
        7  | 33:39.12 |  7:26.57 |    151437    |   184943
        8  | 41:05.69 |  8:00.36 |    184944    |   220979
Range status and errors
Selected range
     Filename G:\slsk\Ivory Frequency - Plug-In.wav
     Peak level 100.0 %
     Extraction speed 0.2 X
     Range quality 99.9 %
     Copy CRC 3645709B
     Copy OK
No errors occurred
AccurateRip summary
Track  1  accurately ripped (confidence 3)  [D55C4F8D]
Track  2  accurately ripped (confidence 3)  [9A24A228]
Track  3  accurately ripped (confidence 3)  [ECDEF725]
Track  4  accurately ripped (confidence 3)  [1BAD1089]
Track  5  accurately ripped (confidence 3)  [C1D4718D]
Track  6  accurately ripped (confidence 3)  [B8C0D18D]
Track  7  accurately ripped (confidence 3)  [2C10BC84]
Track  8  accurately ripped (confidence 3)  [C642DD7C]
All tracks accurately ripped
End of status report
Код:
REM GENRE Industrial
REM DATE 2002
REM DISCID 6A0B8208
REM COMMENT "ExactAudioCopy v1.0b1"
PERFORMER "Ivory Frequency"
TITLE "Plug-In"
FILE "Ivory Frequency - Plug-In.flac" WAVE
  TRACK 01 AUDIO
    TITLE "Plug-In"
    PERFORMER "Ivory Frequency"
    INDEX 01 00:00:00
  TRACK 02 AUDIO
    TITLE "The Strangest Callings"
    PERFORMER "Ivory Frequency"
    INDEX 00 03:54:61
    INDEX 01 03:55:58
  TRACK 03 AUDIO
    TITLE "Beasts & Demons"
    PERFORMER "Ivory Frequency"
    INDEX 00 09:51:65
    INDEX 01 09:52:65
  TRACK 04 AUDIO
    TITLE "Dancing Troops"
    PERFORMER "Ivory Frequency"
    INDEX 00 15:18:50
    INDEX 01 15:20:35
  TRACK 05 AUDIO
    TITLE "See The Light"
    PERFORMER "Ivory Frequency"
    INDEX 00 20:55:59
    INDEX 01 20:57:44
  TRACK 06 AUDIO
    TITLE "Today"
    PERFORMER "Ivory Frequency"
    INDEX 00 26:23:01
    INDEX 01 26:24:12
  TRACK 07 AUDIO
    TITLE "Clock Is Ticking Fast"
    PERFORMER "Ivory Frequency"
    INDEX 00 33:38:07
    INDEX 01 33:39:12
  TRACK 08 AUDIO
    TITLE "Ydrosis"
    PERFORMER "Ivory Frequency"
    INDEX 00 41:05:23
    INDEX 01 41:05:69
Код:
AUDIOCHECKER v2.0 beta (build 457) - by Dester - opdester@freemail.hu
~~~~~~~~~~~~~~~~~~~~~~~~~~~~~~~~~~
-=== DO NOT EDIT THIS FILE! ===-
Path: ...\ivory frequency
1 -=- Ivory Frequency - Plug-In.flac -=- CDDA (100%)
124802356
Ivory frequency is a dark electronic band with heavy trance, house, industrial and ebm influences. Some of their most popular songs, like “Today”, seem to slide through the realm of dark trance. Ivory Frequency was formed in formed in 2000 by George Robos and Vaso C. in Athens, Greece.
Their only album 'Plug-In' was released in 2002 by German label Dependent.
George Robos
Правила, инструкции, FAQ!!!
Торрент  Добавлен [26 июн 2020, 16:53] Скачать торрент Магнет ссылка
Скачать торрент
[ Размер 18.86 КБ / Просмотров 4 ]

Статус
Проверен 
 
Размер  458.01 МБ
Приватный: Нет (DHT включён)
.torrent скачан  0
 


     Отправить личное сообщение
   
Страница 1 из 1
Показать сообщения за:  Поле сортировки  
Начать новую тему Ответить на тему


Сейчас этот форум просматривают: нет зарегистрированных пользователей и гости: 0


Вы не можете начинать темы
Вы не можете отвечать на сообщения
Вы не можете редактировать свои сообщения
Вы не можете удалять свои сообщения
Вы не можете добавлять вложения

Перейти:  
cron