Начать новую тему Ответить на тему
Статистика раздачи
Размер: 425.42 МБ | Добавлен: 26 июн 2020, 20:59 | Скачали: 0
Сидеров: 0  [0 байт/сек]    Личеров: 0  [0 байт/сек]
Пред. тема | След. тема 

Автор
Сообщение

СообщениеДобавлено: 26 июн 2020, 20:59 

Ответить с цитатой 

Interface - The Artemis Complex
Жанр: EBM industrial
Год выпуска диска: 1999
Производитель диска: (self released, USA)
Аудио кодек: FLAC
Тип рипа: image+.cue
Битрейт аудио: lossless
Продолжительность: 1:00:56.63
Трэклист:
01. Artemis 1 [2:21]
02. Frantic [5:09]
03. Tortoise [4:00]
04. Autostation [7:03]
05. Black Sun [5:03]
06. Artemis 2 [5:07]
07. Metalstorm [4:53]
08. Heaven and Hell [4:09]
09. Artemis 3 [1:44]
10. The Softest Blade [6:33]
11. Horizon Orient [4:31]
12. Syndrome [5:29]
13. Ore [4:55]
Код:
Exact Audio Copy V0.99 prebeta 5 from 4. May 2009
Отчёт EAC об извлечении, выполненном 9. января 2010, 22:50
Interface / The Artemis Complex
Дисковод: Optiarc DVD RW AD-7173A   Adapter: 0  ID: 0
Режим чтения                 : Достоверность
Использование точного потока : Да
Отключение кэша аудио        : Да
Использование указателей C2  : Нет
Коррекция смещения при чтении                     : 48
Способность читать области Lead-in и Lead-out     : Нет
Заполнение пропущенных сэмплов тишиной            : Да
Удаление блоков с тишиной в начале и конце        : Нет
При вычислениях CRC использовались нулевые сэмплы : Да
Интерфейс                                         : Установленный внешний ASPI-интерфейс
Выходной формат          : Пользовательский кодировщик
Выбранный битрейт        : 1024 kBit/s
Качество                 : Высокий
Добавление ID3-тэга      : Нет
Утилита сжатия           : C:\Program Files\Exact Audio Copy\Flac\flac.exe
Дополнительные параметры : -6 -V -T "ARTIST=%a" -T "TITLE=%t" -T "ALBUM=%g" -T "DATE=%y" -T "TRACKNUMBER=%n" -T "GENRE=%m" -T "COMMENT=%e" %s -o %d
TOC извлечённого CD
     Трек |   Старт  | Длительность | Начальный сектор | Конечный сектор
    ---------------------------------------------------------------------
       1  |  0:00.00 |    2:20.45   |           0      |      10544
       2  |  2:20.45 |    5:09.15   |       10545      |      33734
       3  |  7:29.60 |    4:00.14   |       33735      |      51748
       4  | 11:29.74 |    7:03.26   |       51749      |      83499
       5  | 18:33.25 |    5:03.32   |       83500      |     106256
       6  | 23:36.57 |    5:06.40   |      106257      |     129246
       7  | 28:43.22 |    4:53.23   |      129247      |     151244
       8  | 33:36.45 |    4:08.40   |      151245      |     169884
       9  | 37:45.10 |    1:43.65   |      169885      |     177674
      10  | 39:29.00 |    6:32.73   |      177675      |     207147
      11  | 46:01.73 |    4:31.08   |      207148      |     227480
      12  | 50:33.06 |    5:29.04   |      227481      |     252159
      13  | 56:02.10 |    4:54.53   |      252160      |     274262
Характеристики диапазона извлечения и сообщения об ошибках
Выбранный диапазон
     Имя файла H:\СКАЧКА\FLAC\1 TORRENT\Interface - The Artemis Complex.wav
     Пиковый уровень 100.0 %
     Качество диапазона 99.9 %
     CRC теста 3BA00B4E
     CRC копии 3BA00B4E
     Копирование... OK
Ошибок не произошло
AccurateRip: сводка
Трек  1  нет в базе данных
Трек  2  нет в базе данных
Трек  3  нет в базе данных
Трек  4  нет в базе данных
Трек  5  нет в базе данных
Трек  6  нет в базе данных
Трек  7  нет в базе данных
Трек  8  нет в базе данных
Трек  9  нет в базе данных
Трек 10  нет в базе данных
Трек 11  нет в базе данных
Трек 12  нет в базе данных
Трек 13  нет в базе данных
Ни одного трека нет в базе AccurateRip
Конец отчёта
Хочешь скачать, но не можешь из-за отсутствия сидов - пиши в личку!
Правила, инструкции, FAQ!!!
Торрент  Добавлен [26 июн 2020, 20:59] Скачать торрент Магнет ссылка
Скачать торрент
[ Размер 17.46 КБ / Просмотров 7 ]

Статус
Проверен 
 
Размер  425.42 МБ
Приватный: Нет (DHT включён)
.torrent скачан  0
 


     Отправить личное сообщение
   
Страница 1 из 1
Показать сообщения за:  Поле сортировки  
Начать новую тему Ответить на тему


Сейчас этот форум просматривают: нет зарегистрированных пользователей и гости: 0


Вы не можете начинать темы
Вы не можете отвечать на сообщения
Вы не можете редактировать свои сообщения
Вы не можете удалять свои сообщения
Вы не можете добавлять вложения

Перейти:  
cron