Начать новую тему Ответить на тему
Статистика раздачи
Размер: 483.57 МБ | Добавлен: 26 июн 2020, 19:58 | Скачали: 0
Сидеров: 0  [0 байт/сек]    Личеров: 0  [0 байт/сек]
Пред. тема | След. тема 

Автор
Сообщение

СообщениеДобавлено: 26 июн 2020, 19:58 

Ответить с цитатой 

Informatik - Re:Vision
Жанр: EBM, Industrial
Год выпуска диска: 2004
Производитель диска: США
Аудио кодек: FLAC
Тип рипа: image+.cue
Битрейт аудио: lossless
Продолжительность: 59:33.66
Трэклист:
01. World Belongs to Us
02. Over (Iris RMX)
03. Retrograduation (On the Verge Re:Vision)
04. Revolutions
05. Flesh Menagerie (Funker Vogt RMX)
06. Saints and Sinners
07. Matter of Time (Assembloge 23 RMX)
08. Autonomous (Constant Surveillance Re:Vision)
09. House of Cards
10. At Your Command (Abdication Re:Vision)
11. Watching You Watching Me (Live, (Multimedia Track))
Exact Audio Copy V0.99 prebeta 4 from 23. January 2008
Отчёт EAC об извлечении, выполненном 7. сентября 2008, 16:39
Informatik / Re Vision
Дисковод: PIONEER DVD-RW DVR-111D Adapter: 0 ID: 0
Режим чтения : Достоверность
Использование точного потока : Да
Отключение кэша аудио : Да
Использование указателей C2 : Нет
Коррекция смещения при чтении : 48
Способность читать области Lead-in и Lead-out : Нет
Заполнение пропущенных сэмплов тишиной : Да
Удаление блоков с тишиной в начале и конце : Нет
При вычислениях CRC использовались нулевые сэмплы : Да
Интерфейс : Встроенный Win32-интерфейс для Win NT/2000
Выходной формат : Пользовательский кодировщик
Выбранный битрейт : 1024 kBit/s
Качество : Высокий
Добавление ID3-тэга : Нет
Утилита сжатия : C:\Program Files\Exact Audio Copy\FLAC\FLAC.EXE
Дополнительные параметры : -8 -V -T "ARTIST=%a" -T "TITLE=%t" -T "ALBUM=%g" -T "DATE=%y" -T "TRACKNUMBER=%n" -T "GENRE=%m" -T "COMMENT=%e" %s -o %d
TOC извлечённого CD
Трек | Старт | Длительность | Начальный сектор | Конечный сектор
---------------------------------------------------------------------
1 | 0:00.00 | 5:41.35 | 0 | 25609
2 | 5:41.35 | 6:17.04 | 25610 | 53888
3 | 11:58.39 | 5:40.43 | 53889 | 79431
4 | 17:39.07 | 5:12.47 | 79432 | 102878
5 | 22:51.54 | 4:47.69 | 102879 | 124472
6 | 27:39.48 | 5:33.22 | 124473 | 149469
7 | 33:12.70 | 6:21.63 | 149470 | 178107
8 | 39:34.58 | 5:40.56 | 178108 | 203663
9 | 45:15.39 | 6:34.71 | 203664 | 233284
10 | 51:50.35 | 5:11.31 | 233285 | 256640
11 | 59:33.66 | 10:16.68 | 268041 | 314308
Характеристики диапазона извлечения и сообщения об ошибках
Выбранный диапазон
Имя файла D:\123\t\Informatik - Re Vision\Informatik - Re Vision.wav
Пиковый уровень 97.7 %
Качество диапазона 100.0 %
CRC теста 0FB601A3
CRC копии 0FB601A3
Копирование... OK
Ошибок не произошло
AccurateRip: сводка
Трек 1 точное извлечение (доверие 5) [CCBC2041]
Трек 2 точное извлечение (доверие 5) [17D6533C]
Трек 3 точное извлечение (доверие 5) [56A01C12]
Трек 4 точное извлечение (доверие 5) [0E12F1E3]
Трек 5 точное извлечение (доверие 5) [2A78A753]
Трек 6 точное извлечение (доверие 5) [CD146E83]
Трек 7 точное извлечение (доверие 5) [917FCB1C]
Трек 8 точное извлечение (доверие 5) [22A54872]
Трек 9 точное извлечение (доверие 5) [3B7DF4C9]
Трек 10 точное извлечение (доверие 5) [F750F102]
Все треки извлечены точно
Конец отчёта
AUDIOCHECKER v2.0 beta (build 457) - by Dester - opdester@freemail.hu
~~~~~~~~~~~~~~~~~~~~~~~~~~~~~~~~~~
-=== DO NOT EDIT THIS FILE! ===-
Path: ...\Informatik - Re Vision [2004]
1 -=- Informatik - Re Vision.flac -=- CDDA (100%)
169537428
Доп. информация: После четырехлетнего молчания бостонский электро-индустриальный/ЕВМ проект INFORMATIK подал признаки жизни. 9 сентября на лейбле Metropolis Records выйдет новый альбом "Beyond" дуэта Da5id Din и Tyler Newman. Группа была сформирована в 1990-х годах и ее последним релизом на текущий момент является работа 2004 года "Re:Vision".
Информация взята с http://www.machinistmusic.net/
Правила, инструкции, FAQ!!!
Торрент  Добавлен [26 июн 2020, 19:58] Скачать торрент Магнет ссылка
Скачать торрент
[ Размер 19.62 КБ / Просмотров 12 ]

Статус
Проверен 
 
Размер  483.57 МБ
Приватный: Нет (DHT включён)
.torrent скачан  0
 


     Отправить личное сообщение
   
Страница 1 из 1
Показать сообщения за:  Поле сортировки  
Начать новую тему Ответить на тему


Сейчас этот форум просматривают: нет зарегистрированных пользователей и гости: 0


Вы не можете начинать темы
Вы не можете отвечать на сообщения
Вы не можете редактировать свои сообщения
Вы не можете удалять свои сообщения
Вы не можете добавлять вложения

Перейти:  
cron