Начать новую тему Ответить на тему
Статистика раздачи
Размер: 481.88 МБ | Добавлен: 26 июн 2020, 17:13 | Скачали: 0
Сидеров: 0  [0 байт/сек]    Личеров: 0  [0 байт/сек]
Пред. тема | След. тема 

Автор
Сообщение

СообщениеДобавлено: 26 июн 2020, 17:13 

Ответить с цитатой 

Informätik / Syntax
Жанр: Electronic / EBM, Industrial
Страна-производитель диска: Germany
Год издания диска: 1998
Издатель (лейбл): Nova Tekk
Номер по каталогу: NTD 90108-22
Формат: CD, Album
Страна: USA
Аудио кодек: FLAC (*.flac)
Тип рипа: image+.cue
Битрейт аудио: lossless
Продолжительность: 1:01:42.94
Источник (релизер): Физический носитель (Собственный рип с оригинала).
Наличие сканов в содержимом раздачи: да
Треклист:
01. Things To Come (War Changes Nothing Mix) [5:06]
02. Night Life [4:56]
03. Entropy (Syntax Mix) [5:10]
04. Nil [4:45]
05. Watching You Watching Me [5:42]
06. Now Here [4:35]
07. Retrogradation [8:18]
08. Nameless [4:37]
09. Innocence And Blood [4:30]
10. Peril Eyes (Decoded Feedback Remix) [4:12]
11. Watching You Watching Me (NCC Remix) [4:55]
12. Things To Come (Dub Mix) [4:56]
Код:
Exact Audio Copy V1.0 beta 3 from 29. August 2011
EAC extraction logfile from 10. February 2012, 23:54
Informatik / Syntax
Used drive  : PLEXTOR BDDVDR PX-B320SA   Adapter: 0  ID: 2
Read mode               : Secure
Utilize accurate stream : Yes
Defeat audio cache      : Yes
Make use of C2 pointers : No
Read offset correction                      : 6
Overread into Lead-In and Lead-Out          : No
Fill up missing offset samples with silence : Yes
Delete leading and trailing silent blocks   : No
Null samples used in CRC calculations       : Yes
Used interface                              : Native Win32 interface for Win NT & 2000
Used output format              : User Defined Encoder
Selected bitrate                : 128 kBit/s
Quality                         : High
Add ID3 tag                     : No
Command line compressor         : C:\Program Files (x86)\FLAC\flac.exe
Additional command line options : -V -8 -T "Date=%year%" -T "Genre=%genre%" %source%
TOC of the extracted CD
     Track |   Start  |  Length  | Start sector | End sector
    ---------------------------------------------------------
        1  |  0:00.00 |  5:06.13 |         0    |    22962
        2  |  5:06.13 |  4:55.70 |     22963    |    45157
        3  | 10:02.08 |  5:10.15 |     45158    |    68422
        4  | 15:12.23 |  4:45.27 |     68423    |    89824
        5  | 19:57.50 |  5:41.40 |     89825    |   115439
        6  | 25:39.15 |  4:35.28 |    115440    |   136092
        7  | 30:14.43 |  8:18.30 |    136093    |   173472
        8  | 38:32.73 |  4:36.40 |    173473    |   194212
        9  | 43:09.38 |  4:30.17 |    194213    |   214479
       10  | 47:39.55 |  4:11.53 |    214480    |   233357
       11  | 51:51.33 |  4:55.02 |    233358    |   255484
       12  | 56:46.35 |  4:56.36 |    255485    |   277720
Range status and errors
Selected range
     Filename D:\Informatik - Syntax (1998)\Informatik - Syntax.wav
     Peak level 96.6 %
     Extraction speed 3.7 X
     Range quality 100.0 %
     Test CRC 2812BC2D
     Copy CRC 2812BC2D
     Copy OK
No errors occurred
AccurateRip summary
Track  1  accurately ripped (confidence 3)  [CF5F5F46]  (AR v1)
Track  2  accurately ripped (confidence 3)  [38F659D7]  (AR v1)
Track  3  accurately ripped (confidence 3)  [61655C08]  (AR v1)
Track  4  accurately ripped (confidence 3)  [1B18553F]  (AR v1)
Track  5  accurately ripped (confidence 3)  [45075E3A]  (AR v1)
Track  6  accurately ripped (confidence 3)  [4CC2EE58]  (AR v1)
Track  7  accurately ripped (confidence 3)  [60520F98]  (AR v1)
Track  8  accurately ripped (confidence 3)  [F2442CE5]  (AR v1)
Track  9  accurately ripped (confidence 3)  [4E39D9CB]  (AR v1)
Track 10  accurately ripped (confidence 3)  [9AE93165]  (AR v1)
Track 11  accurately ripped (confidence 3)  [6AC06CE5]  (AR v1)
Track 12  accurately ripped (confidence 3)  [6767836A]  (AR v1)
All tracks accurately ripped
End of status report
==== Log checksum 8886C562CB931AFA7003693B3D44A6010A4D21420A1136A2C7F94A1DAC7F8D1C ====
Приятного прослушивания !
Правила, инструкции, FAQ!!!
Торрент  Добавлен [26 июн 2020, 17:13] Скачать торрент Магнет ссылка
Скачать торрент
[ Размер 19.68 КБ / Просмотров 4 ]

Статус
Проверен 
 
Размер  481.88 МБ
Приватный: Нет (DHT включён)
.torrent скачан  0
 


     Отправить личное сообщение
   
Страница 1 из 1
Показать сообщения за:  Поле сортировки  
Начать новую тему Ответить на тему


Сейчас этот форум просматривают: нет зарегистрированных пользователей и гости: 0


Вы не можете начинать темы
Вы не можете отвечать на сообщения
Вы не можете редактировать свои сообщения
Вы не можете удалять свои сообщения
Вы не можете добавлять вложения

Перейти:  
cron