Начать новую тему Ответить на тему
Статистика раздачи
Размер: 247.08 МБ | Добавлен: 26 июн 2020, 16:59 | Скачали: 0
Сидеров: 0  [0 байт/сек]    Личеров: 0  [0 байт/сек]
Пред. тема | След. тема 

Автор
Сообщение

СообщениеДобавлено: 26 июн 2020, 16:59 

Ответить с цитатой 

Informatik - Direct Memory Access
Жанр: EBM, Industrial
Год выпуска диска: 1995
Производитель диска: США
Аудио кодек: FLAC
Тип рипа: tracks+.cue
Битрейт аудио: lossless
Продолжительность: 32:38.60
Трэклист:
01. Autonomous
02. At Your Command
03. Peril Eyes
04. I Confess (Repentance Mix)
05. Immigrant Song
06. Silicon
07. Autonomous (Nothing Is Real Mix)
08. I Confess (I Wanted To Pray Mix)
Exact Audio Copy V0.99 prebeta 3 from 28. July 2007
EAC extraction logfile from 24. January 2008, 0:50
Informatik / Direct Memory Access
Used drive : SONY DVD+-RW DW-D56A Adapter: 1 ID: 0
Read mode : Secure
Utilize accurate stream : Yes
Defeat audio cache : Yes
Make use of C2 pointers : No
Read offset correction : 12
Overread into Lead-In and Lead-Out : No
Fill up missing offset samples with silence : Yes
Delete leading and trailing silent blocks : No
Null samples used in CRC calculations : Yes
Used interface : Native Win32 interface for Win NT & 2000
Gap handling : Appended to previous track
Used output format : User Defined Encoder
Selected bitrate : 128 kBit/s
Quality : High
Add ID3 tag : Yes
Command line compressor : C:\Program Files\FLAC\flac.exe
Additional command line options : -V -8 -T "artist=%a" -T "title=%t" -T "album=%g" -T "date=%y" -T "tracknumber=%n" -T "genre=%m" %s
TOC of the extracted CD
Track | Start | Length | Start sector | End sector
---------------------------------------------------------
1 | 0:00.00 | 4:39.42 | 0 | 20966
2 | 4:39.42 | 4:56.15 | 20967 | 43181
3 | 9:35.57 | 4:01.65 | 43182 | 61321
4 | 13:37.47 | 4:24.43 | 61322 | 81164
5 | 18:02.15 | 3:27.65 | 81165 | 96754
6 | 21:30.05 | 5:06.07 | 96755 | 119711
7 | 26:36.12 | 6:02.48 | 119712 | 146909
8 | 32:38.60 | 5:06.40 | 146910 | 169899
Track 1
Filename C:\Torrents\Informatik - Direct Memory Access\01-Autonomous.wav
Pre-gap length 0:00:02.00
Peak level 96.3 %
Track quality 99.9 %
Test CRC 0CFB553D
Copy CRC 0CFB553D
Copy OK
Track 2
Filename C:\Torrents\Informatik - Direct Memory Access\02-At Your Command.wav
Pre-gap length 0:00:04.18
Peak level 94.4 %
Track quality 99.9 %
Test CRC 51142D12
Copy CRC 51142D12
Copy OK
Track 3
Filename C:\Torrents\Informatik - Direct Memory Access\03-Peril Eyes.wav
Pre-gap length 0:00:02.94
Peak level 71.1 %
Track quality 100.0 %
Test CRC 4322C274
Copy CRC 4322C274
Copy OK
Track 4
Filename C:\Torrents\Informatik - Direct Memory Access\04-I Confess (Repentance mix).wav
Pre-gap length 0:00:03.69
Peak level 99.5 %
Track quality 100.0 %
Test CRC B6B23FA3
Copy CRC B6B23FA3
Copy OK
Track 5
Filename C:\Torrents\Informatik - Direct Memory Access\05-Immigrant Song.wav
Pre-gap length 0:00:04.93
Peak level 76.1 %
Track quality 99.9 %
Test CRC 1CE6576D
Copy CRC 1CE6576D
Copy OK
Track 6
Filename C:\Torrents\Informatik - Direct Memory Access\06-Silicon.wav
Pre-gap length 0:00:04.06
Peak level 93.8 %
Track quality 100.0 %
Test CRC CDC6543D
Copy CRC CDC6543D
Copy OK
Track 7
Filename C:\Torrents\Informatik - Direct Memory Access\07-Autonomous (Nothing is Real).wav
Pre-gap length 0:00:05.12
Peak level 76.6 %
Track quality 100.0 %
Test CRC D7684B14
Copy CRC D7684B14
Copy OK
Track 8
Filename C:\Torrents\Informatik - Direct Memory Access\08-I Confess (I wanted to pray mix).wav
Pre-gap length 0:00:04.40
Peak level 79.9 %
Track quality 99.9 %
Test CRC 3B75881D
Copy CRC 3B75881D
Copy OK
No errors occurred
End of status report
AUDIOCHECKER v2.0 beta (build 457) - by Dester - opdester@freemail.hu
~~~~~~~~~~~~~~~~~~~~~~~~~~~~~~~~~~
-=== DO NOT EDIT THIS FILE! ===-
Path: ...\Informatik - Direct Memory Access
001 -=- 01-Autonomous.flac -=- CDDA (100%)
002 -=- 02-At Your Command.flac -=- CDDA (99%)
003 -=- 03-Peril Eyes.flac -=- CDDA (100%)
004 -=- 04-I Confess (Repentance mix).flac -=- CDDA (100%)
005 -=- 05-Immigrant Song.flac -=- CDDA (100%)
006 -=- 06-Silicon.flac -=- CDDA (100%)
007 -=- 07-Autonomous (Nothing is Real).flac -=- CDDA (99%)
008 -=- 08-I Confess (I wanted to pray mix).flac -=- CDDA (100%)
Summary 99,75% CDDA
243813124
Доп. информация: Label: Sinless Records, Catalog#: SIN 001
Данный релиз, был успешно подготовлен, благодаря maxmin, за что ему огромное спасибо!
Правила, инструкции, FAQ!!!
Торрент  Добавлен [26 июн 2020, 16:59] Скачать торрент Магнет ссылка
Скачать торрент
[ Размер 5.98 КБ / Просмотров 3 ]

Статус
Проверен 
 
Размер  247.08 МБ
Приватный: Нет (DHT включён)
.torrent скачан  0
 


     Отправить личное сообщение
   
Страница 1 из 1
Показать сообщения за:  Поле сортировки  
Начать новую тему Ответить на тему


Сейчас этот форум просматривают: нет зарегистрированных пользователей и гости: 0


Вы не можете начинать темы
Вы не можете отвечать на сообщения
Вы не можете редактировать свои сообщения
Вы не можете удалять свои сообщения
Вы не можете добавлять вложения

Перейти:  
cron