Начать новую тему Ответить на тему
Статистика раздачи
Размер: 770.21 МБ | Добавлен: 26 июн 2020, 17:36 | Скачали: 0
Сидеров: 0  [0 байт/сек]    Личеров: 0  [0 байт/сек]
Пред. тема | След. тема 

Автор
Сообщение

СообщениеДобавлено: 26 июн 2020, 17:36 

Ответить с цитатой 

Various Artists - Industrial Revolution - Second Edition





Жанр: EBM, Industrial
Год издания диска: 1994
Издатель (лейбл): CEMA Special Markets, Cleopatra
Номер по каталогу: S22-17771, CLEO 77712
Страна: US
Аудиокодек: FLAC (*.flac)
Тип рипа: tracks+.cue
Битрейт аудио: lossless
Общая продолжительность звучания: 01:56:21
Источник (релизер): what.cd
Наличие сканов в содержимом раздачи: нет
Треклист:
1-01 Einsturzende Neubauten - Feurio! (Remix) (4:49)
1-02 Pigface - Winnebago Induced Tapeworm (Remix) (4:57)
1-03 The Electric Hellfire Club - Mr. 44 (4:37)
1-04 Skinny Puppy - Dig It (7:25)
1-05 Spahn Ranch - Succumber (Remix) (4:58)
1-06 Klute - Desert Storm (Remix) (4:03)
1-07 Chemlab - Codeine, Glue And You (4:46)
1-08 Brian Eno - Third Uncle (4:49)
1-09 Psychopomps - Death To Censorship (4:51)
1-10 Controlled Bleeding - In Penetration (3:31)
1-11 Digital Poodle - Division (5:59)
1-12 Lab Report - Figure Q-42 (3:13)
Код:
Exact Audio Copy V0.99 prebeta 4 from 23. January 2008
EAC extraction logfile from 10. May 2009, 1:33
Industrial Revolution - Second edition / Industrial Revolution - Second edition [Disc 1]
Used drive  : TSSTcorpCD/DVDW SH-W162Z   Adapter: 5  ID: 0
Read mode               : Secure
Utilize accurate stream : Yes
Defeat audio cache      : Yes
Make use of C2 pointers : No
Read offset correction                      : 6
Overread into Lead-In and Lead-Out          : No
Fill up missing offset samples with silence : Yes
Delete leading and trailing silent blocks   : No
Null samples used in CRC calculations       : Yes
Used interface                              : Native Win32 interface for Win NT & 2000
Gap handling                                : Appended to previous track
Used output format              : User Defined Encoder
Selected bitrate                : 224 kBit/s
Quality                         : High
Add ID3 tag                     : No
Command line compressor         : C:\Program Files\Exact Audio Copy\Flac\flac.exe
Additional command line options : -V -8 -T "artist=%a" -T "title=%t" -T "album=%g" -T "date=%y" -T "tracknumber=%n" -T "genre=%m" %s
TOC of the extracted CD
     Track |   Start  |  Length  | Start sector | End sector
    ---------------------------------------------------------
        1  |  0:00.00 |  4:49.12 |         0    |    21686
        2  |  4:49.12 |  4:57.70 |     21687    |    44031
        3  |  9:47.07 |  4:37.40 |     44032    |    64846
        4  | 14:24.47 |  7:25.48 |     64847    |    98269
        5  | 21:50.20 |  4:58.07 |     98270    |   120626
        6  | 26:48.27 |  4:03.70 |    120627    |   138921
        7  | 30:52.22 |  4:46.00 |    138922    |   160371
        8  | 35:38.22 |  4:49.25 |    160372    |   182071
        9  | 40:27.47 |  4:51.35 |    182072    |   203931
       10  | 45:19.07 |  3:31.68 |    203932    |   219824
       11  | 48:51.00 |  5:59.30 |    219825    |   246779
       12  | 54:50.30 |  3:13.37 |    246780    |   261291
Track  1
     Filename H:\hear encoding\!compilations\industrial revolution - second edition flac\cd1\Industrial Revolution - Second edition - Industrial Revolution - Second edition [Disc 1] - 01 - Einsturzende Neubauten , Feurio! [Remix].wav
     Pre-gap length  0:00:02.00
     Peak level 96.0 %
     Track quality 100.0 %
     Test CRC 382DB46F
     Copy CRC 382DB46F
     Accurately ripped (confidence 4)  [34A1AC7A]
     Copy OK
Track  2
     Filename H:\hear encoding\!compilations\industrial revolution - second edition flac\cd1\Industrial Revolution - Second edition - Industrial Revolution - Second edition [Disc 1] - 02 - Pigface , Winnebago induced tapeworm [Remix].wav
     Pre-gap length  0:00:01.17
     Peak level 98.8 %
     Track quality 100.0 %
     Test CRC 4E37682E
     Copy CRC 4E37682E
     Accurately ripped (confidence 4)  [66798D81]
     Copy OK
Track  3
     Filename H:\hear encoding\!compilations\industrial revolution - second edition flac\cd1\Industrial Revolution - Second edition - Industrial Revolution - Second edition [Disc 1] - 03 - The Electric Hellfire Club , Mr. 44.wav
     Pre-gap length  0:00:01.45
     Peak level 98.8 %
     Track quality 100.0 %
     Test CRC 3D69962A
     Copy CRC 3D69962A
     Accurately ripped (confidence 5)  [05140E57]
     Copy OK
Track  4
     Filename H:\hear encoding\!compilations\industrial revolution - second edition flac\cd1\Industrial Revolution - Second edition - Industrial Revolution - Second edition [Disc 1] - 04 - Skinny Puppy , Dig it.wav
     Pre-gap length  0:00:01.15
     Peak level 87.8 %
     Track quality 99.9 %
     Test CRC 6BDC0F9B
     Copy CRC 6BDC0F9B
     Accurately ripped (confidence 5)  [E5C1CF5A]
     Copy OK
Track  5
     Filename H:\hear encoding\!compilations\industrial revolution - second edition flac\cd1\Industrial Revolution - Second edition - Industrial Revolution - Second edition [Disc 1] - 05 - Spahn Ranch , Succumber [Remix].wav
     Peak level 98.8 %
     Track quality 100.0 %
     Test CRC DF2BE9AE
     Copy CRC DF2BE9AE
     Accurately ripped (confidence 5)  [FC32FE7B]
     Copy OK
Track  6
     Filename H:\hear encoding\!compilations\industrial revolution - second edition flac\cd1\Industrial Revolution - Second edition - Industrial Revolution - Second edition [Disc 1] - 06 - Klute , Desert Storm [Remix].wav
     Pre-gap length  0:00:01.37
     Peak level 98.8 %
     Track quality 100.0 %
     Test CRC DCC85BE8
     Copy CRC DCC85BE8
     Accurately ripped (confidence 5)  [BD7AABD8]
     Copy OK
Track  7
     Filename H:\hear encoding\!compilations\industrial revolution - second edition flac\cd1\Industrial Revolution - Second edition - Industrial Revolution - Second edition [Disc 1] - 07 - Chem Lab , Codeine, glue and you.wav
     Pre-gap length  0:00:01.10
     Peak level 98.2 %
     Track quality 100.0 %
     Test CRC BB1A4556
     Copy CRC BB1A4556
     Accurately ripped (confidence 3)  [26F4D24C]
     Copy OK
Track  8
     Filename H:\hear encoding\!compilations\industrial revolution - second edition flac\cd1\Industrial Revolution - Second edition - Industrial Revolution - Second edition [Disc 1] - 08 - Brian Eno , Third uncle.wav
     Peak level 97.0 %
     Track quality 100.0 %
     Test CRC FC7956B0
     Copy CRC FC7956B0
     Accurately ripped (confidence 3)  [D2094990]
     Copy OK
Track  9
     Filename H:\hear encoding\!compilations\industrial revolution - second edition flac\cd1\Industrial Revolution - Second edition - Industrial Revolution - Second edition [Disc 1] - 09 - Psychopomps , Death to censorship.wav
     Pre-gap length  0:00:01.05
     Peak level 98.8 %
     Track quality 100.0 %
     Test CRC DDEF43E3
     Copy CRC DDEF43E3
     Accurately ripped (confidence 4)  [C24F45B0]
     Copy OK
Track 10
     Filename H:\hear encoding\!compilations\industrial revolution - second edition flac\cd1\Industrial Revolution - Second edition - Industrial Revolution - Second edition [Disc 1] - 10 - Controlled Bleeding , In penetration.wav
     Peak level 98.8 %
     Track quality 100.0 %
     Test CRC 6006E72A
     Copy CRC 6006E72A
     Accurately ripped (confidence 4)  [6F4EEA77]
     Copy OK
Track 11
     Filename H:\hear encoding\!compilations\industrial revolution - second edition flac\cd1\Industrial Revolution - Second edition - Industrial Revolution - Second edition [Disc 1] - 11 - Digital Poodle , Division.wav
     Peak level 97.8 %
     Track quality 100.0 %
     Test CRC 2F1C53FA
     Copy CRC 2F1C53FA
     Accurately ripped (confidence 3)  [0CFAF7AA]
     Copy OK
Track 12
     Filename H:\hear encoding\!compilations\industrial revolution - second edition flac\cd1\Industrial Revolution - Second edition - Industrial Revolution - Second edition [Disc 1] - 12 - Lab Report , Figure Q-42.wav
     Peak level 95.9 %
     Track quality 100.0 %
     Test CRC 53745EC1
     Copy CRC 53745EC1
     Accurately ripped (confidence 4)  [C0D4C288]
     Copy OK
All tracks accurately ripped
No errors occurred
End of status report
Код:
REM GENRE Industrial
REM DATE 1994
REM DISCID 9E0D9B0C
REM COMMENT "ExactAudioCopy v0.99pb4"
PERFORMER "Industrial Revolution - Second edition"
TITLE "Industrial Revolution - Second edition [Disc 1]"
FILE "01 - Einsturzende Neubauten - Feurio! [Remix].wav" WAVE
  TRACK 01 AUDIO
    TITLE "Feurio! [Remix]"
    PERFORMER "Einsturzende Neubauten"
    INDEX 01 00:00:00
  TRACK 02 AUDIO
    TITLE "Winnebago induced tapeworm [Remix]"
    PERFORMER "Pigface"
    INDEX 00 04:47:70
FILE "02 - Pigface - Winnebago induced tapeworm [Remix].wav" WAVE
    INDEX 01 00:00:00
  TRACK 03 AUDIO
    TITLE "Mr. 44"
    PERFORMER "The Electric Hellfire Club"
    INDEX 00 04:56:25
FILE "03 - The Electric Hellfire Club - Mr. 44.wav" WAVE
    INDEX 01 00:00:00
  TRACK 04 AUDIO
    TITLE "Dig it"
    PERFORMER "Skinny Puppy"
    INDEX 00 04:36:25
FILE "04 - Skinny Puppy - Dig it.wav" WAVE
    INDEX 01 00:00:00
FILE "05 - Spahn Ranch - Succumber [Remix].wav" WAVE
  TRACK 05 AUDIO
    TITLE "Succumber [Remix]"
    PERFORMER "Spahn Ranch"
    INDEX 01 00:00:00
  TRACK 06 AUDIO
    TITLE "Desert Storm [Remix]"
    PERFORMER "Klute"
    INDEX 00 04:56:45
FILE "06 - Klute - Desert Storm [Remix].wav" WAVE
    INDEX 01 00:00:00
  TRACK 07 AUDIO
    TITLE "Codeine, glue and you"
    PERFORMER "Chem Lab"
    INDEX 00 04:02:60
FILE "07 - Chem Lab - Codeine, glue and you.wav" WAVE
    INDEX 01 00:00:00
FILE "08 - Brian Eno - Third uncle.wav" WAVE
  TRACK 08 AUDIO
    TITLE "Third uncle"
    PERFORMER "Brian Eno"
    INDEX 01 00:00:00
  TRACK 09 AUDIO
    TITLE "Death to censorship"
    PERFORMER "Psychopomps"
    INDEX 00 04:48:20
FILE "09 - Psychopomps - Death to censorship.wav" WAVE
    INDEX 01 00:00:00
FILE "10 - Controlled Bleeding - In penetration.wav" WAVE
  TRACK 10 AUDIO
    TITLE "In penetration"
    PERFORMER "Controlled Bleeding"
    INDEX 01 00:00:00
FILE "11 - Digital Poodle - Division.wav" WAVE
  TRACK 11 AUDIO
    TITLE "Division"
    PERFORMER "Digital Poodle"
    INDEX 01 00:00:00
FILE "12 - Lab Report - Figure Q-42.wav" WAVE
  TRACK 12 AUDIO
    TITLE "Figure Q-42"
    PERFORMER "Lab Report"
    INDEX 01 00:00:00
Код:
AUDIOCHECKER v2.0 beta (build 457) - by Dester - opdester@freemail.hu
~~~~~~~~~~~~~~~~~~~~~~~~~~~~~~~~~~
-=== DO NOT EDIT THIS FILE! ===-
Path: ...\cd1
01 -=- 01 - Einsturzende Neubauten - Feurio! [Remix].flac -=- CDDA (100%)
02 -=- 02 - Pigface - Winnebago induced tapeworm [Remix].flac -=- CDDA (100%)
03 -=- 03 - The Electric Hellfire Club - Mr. 44.flac -=- CDDA (100%)
04 -=- 04 - Skinny Puppy - Dig it.flac -=- CDDA (100%)
05 -=- 05 - Spahn Ranch - Succumber [Remix].flac -=- CDDA (100%)
06 -=- 06 - Klute - Desert Storm [Remix].flac -=- CDDA (100%)
07 -=- 07 - Chem Lab - Codeine, glue and you.flac -=- CDDA (100%)
08 -=- 08 - Brian Eno - Third uncle.flac -=- CDDA (100%)
09 -=- 09 - Psychopomps - Death to censorship.flac -=- CDDA (100%)
10 -=- 10 - Controlled Bleeding - In penetration.flac -=- CDDA (100%)
11 -=- 11 - Digital Poodle - Division.flac -=- CDDA (100%)
12 -=- 12 - Lab Report - Figure Q-42.flac -=- CDDA (99%)
Summary 99,92% CDDA
11230644

Треклист
:
2-01 Front Line Assembly - Mindphazer (Single Mix) (4:27)
2-02 Penal Colony - Reconciled (Remix) (7:03)
2-03 Psychic TV - United '94 (5:59)
2-04 Pressurehed - Shockneck (3:22)
2-05 Consolidated Friendly - Fascism (5:02)
2-06 Nik Turner - Walking In The Sky (4:35)
2-07 Laibach - Geburt Einer Nation (4:19)
2-08 Executive Slacks - In And Out (Remix) (5:45)
2-09 Leæther Strip - Antius (4:44)
2-10 Kraftwerk - Metal On Metal (3:18)
2-11 T.H.D. - Matrix (5:27)
2-12 Test Dept. - The Legacy (4:10)
Код:
Exact Audio Copy V0.99 prebeta 4 from 23. January 2008
EAC extraction logfile from 10. May 2009, 2:35
Industrial Revolution - Second edition / Industrial Revolution - Second edition [Disc 2]
Used drive  : TSSTcorpCD/DVDW SH-W162Z   Adapter: 5  ID: 0
Read mode               : Secure
Utilize accurate stream : Yes
Defeat audio cache      : Yes
Make use of C2 pointers : No
Read offset correction                      : 6
Overread into Lead-In and Lead-Out          : No
Fill up missing offset samples with silence : Yes
Delete leading and trailing silent blocks   : No
Null samples used in CRC calculations       : Yes
Used interface                              : Native Win32 interface for Win NT & 2000
Gap handling                                : Appended to previous track
Used output format              : User Defined Encoder
Selected bitrate                : 224 kBit/s
Quality                         : High
Add ID3 tag                     : No
Command line compressor         : C:\Program Files\Exact Audio Copy\Flac\flac.exe
Additional command line options : -V -8 -T "artist=%a" -T "title=%t" -T "album=%g" -T "date=%y" -T "tracknumber=%n" -T "genre=%m" %s
TOC of the extracted CD
     Track |   Start  |  Length  | Start sector | End sector
    ---------------------------------------------------------
        1  |  0:00.00 |  4:27.00 |         0    |    20024
        2  |  4:27.00 |  7:03.55 |     20025    |    51804
        3  | 11:30.55 |  5:59.70 |     51805    |    78799
        4  | 17:30.50 |  3:22.05 |     78800    |    93954
        5  | 20:52.55 |  5:02.27 |     93955    |   116631
        6  | 25:55.07 |  4:35.40 |    116632    |   137296
        7  | 30:30.47 |  4:19.55 |    137297    |   156776
        8  | 34:50.27 |  5:45.48 |    156777    |   182699
        9  | 40:36.00 |  4:44.72 |    182700    |   204071
       10  | 45:20.72 |  3:18.60 |    204072    |   218981
       11  | 48:39.57 |  5:27.20 |    218982    |   243526
       12  | 54:07.02 |  4:10.10 |    243527    |   262286
Track  1
     Filename H:\hear encoding\!compilations\industrial revolution - second edition flac\cd2\Industrial Revolution - Second edition - Industrial Revolution - Second edition [Disc 2] - 01 - Front Line Assembly , Mindphazer [Single mix].wav
     Pre-gap length  0:00:02.00
     Peak level 98.3 %
     Track quality 100.0 %
     Test CRC 95DEE5BF
     Copy CRC 95DEE5BF
     Accurately ripped (confidence 4)  [D5972400]
     Copy OK
Track  2
     Filename H:\hear encoding\!compilations\industrial revolution - second edition flac\cd2\Industrial Revolution - Second edition - Industrial Revolution - Second edition [Disc 2] - 02 - Penal Colony , Reconciled [Remix].wav
     Pre-gap length  0:00:01.18
     Peak level 98.8 %
     Track quality 99.9 %
     Test CRC EC3F72CD
     Copy CRC EC3F72CD
     Accurately ripped (confidence 6)  [580B8433]
     Copy OK
Track  3
     Filename H:\hear encoding\!compilations\industrial revolution - second edition flac\cd2\Industrial Revolution - Second edition - Industrial Revolution - Second edition [Disc 2] - 03 - Psychic TV , United '94.wav
     Peak level 98.8 %
     Track quality 99.9 %
     Test CRC AC17337E
     Copy CRC AC17337E
     Accurately ripped (confidence 6)  [D703F939]
     Copy OK
Track  4
     Filename H:\hear encoding\!compilations\industrial revolution - second edition flac\cd2\Industrial Revolution - Second edition - Industrial Revolution - Second edition [Disc 2] - 04 - Pressurehed , Shockneck.wav
     Pre-gap length  0:00:01.13
     Peak level 85.8 %
     Track quality 100.0 %
     Test CRC 0F216F82
     Copy CRC 0F216F82
     Accurately ripped (confidence 5)  [9783CC62]
     Copy OK
Track  5
     Filename H:\hear encoding\!compilations\industrial revolution - second edition flac\cd2\Industrial Revolution - Second edition - Industrial Revolution - Second edition [Disc 2] - 05 - Consolidated , Friendly fascism.wav
     Peak level 95.9 %
     Track quality 100.0 %
     Test CRC FE0BC8AE
     Copy CRC FE0BC8AE
     Accurately ripped (confidence 5)  [B23E5193]
     Copy OK
Track  6
     Filename H:\hear encoding\!compilations\industrial revolution - second edition flac\cd2\Industrial Revolution - Second edition - Industrial Revolution - Second edition [Disc 2] - 06 - Nik Turner , Walking in the sky.wav
     Pre-gap length  0:00:01.07
     Peak level 98.8 %
     Track quality 100.0 %
     Test CRC F04E7CB6
     Copy CRC F04E7CB6
     Accurately ripped (confidence 5)  [54789805]
     Copy OK
Track  7
     Filename H:\hear encoding\!compilations\industrial revolution - second edition flac\cd2\Industrial Revolution - Second edition - Industrial Revolution - Second edition [Disc 2] - 07 - Laibach , Gubert einer Nation.wav
     Peak level 98.8 %
     Track quality 100.0 %
     Test CRC 3C62D516
     Copy CRC 3C62D516
     Accurately ripped (confidence 5)  [19B3FDB7]
     Copy OK
Track  8
     Filename H:\hear encoding\!compilations\industrial revolution - second edition flac\cd2\Industrial Revolution - Second edition - Industrial Revolution - Second edition [Disc 2] - 08 - Executive Slacks , In and out [Remix].wav
     Peak level 97.7 %
     Track quality 100.0 %
     Test CRC 0F32DDEB
     Copy CRC 0F32DDEB
     Accurately ripped (confidence 5)  [339B6A53]
     Copy OK
Track  9
     Filename H:\hear encoding\!compilations\industrial revolution - second edition flac\cd2\Industrial Revolution - Second edition - Industrial Revolution - Second edition [Disc 2] - 09 - Leaether Strip , Antius.wav
     Pre-gap length  0:00:01.33
     Peak level 98.8 %
     Track quality 100.0 %
     Test CRC 39AE33B7
     Copy CRC 39AE33B7
     Accurately ripped (confidence 5)  [6ACB2FE0]
     Copy OK
Track 10
     Filename H:\hear encoding\!compilations\industrial revolution - second edition flac\cd2\Industrial Revolution - Second edition - Industrial Revolution - Second edition [Disc 2] - 10 - Kraftwerk , Metal on metal.wav
     Peak level 98.8 %
     Track quality 100.0 %
     Test CRC 20AF1984
     Copy CRC 20AF1984
     Accurately ripped (confidence 5)  [C2E3CA6F]
     Copy OK
Track 11
     Filename H:\hear encoding\!compilations\industrial revolution - second edition flac\cd2\Industrial Revolution - Second edition - Industrial Revolution - Second edition [Disc 2] - 11 - T.H.D. , Matrix.wav
     Pre-gap length  0:00:01.25
     Peak level 98.8 %
     Track quality 100.0 %
     Test CRC DC7FC8DC
     Copy CRC DC7FC8DC
     Accurately ripped (confidence 5)  [7FB7F07D]
     Copy OK
Track 12
     Filename H:\hear encoding\!compilations\industrial revolution - second edition flac\cd2\Industrial Revolution - Second edition - Industrial Revolution - Second edition [Disc 2] - 12 - Test Department , The legacy.wav
     Peak level 98.8 %
     Track quality 100.0 %
     Test CRC BC1D66A0
     Copy CRC BC1D66A0
     Accurately ripped (confidence 5)  [DBB66E4D]
     Copy OK
All tracks accurately ripped
No errors occurred
End of status report
Код:
REM GENRE Industrial
REM DATE 1994
REM DISCID A30DA90C
REM COMMENT "ExactAudioCopy v0.99pb4"
PERFORMER "Industrial Revolution - Second edition"
TITLE "Industrial Revolution - Second edition [Disc 2]"
FILE "01 - Front Line Assembly - Mindphazer [Single mix].wav" WAVE
  TRACK 01 AUDIO
    TITLE "Mindphazer [Single mix]"
    PERFORMER "Front Line Assembly"
    INDEX 01 00:00:00
  TRACK 02 AUDIO
    TITLE "Reconciled [Remix]"
    PERFORMER "Penal Colony"
    INDEX 00 04:25:57
FILE "02 - Penal Colony - Reconciled [Remix].wav" WAVE
    INDEX 01 00:00:00
FILE "03 - Psychic TV - United '94.wav" WAVE
  TRACK 03 AUDIO
    TITLE "United '94"
    PERFORMER "Psychic TV"
    INDEX 01 00:00:00
  TRACK 04 AUDIO
    TITLE "Shockneck"
    PERFORMER "Pressurehed"
    INDEX 00 05:58:57
FILE "04 - Pressurehed - Shockneck.wav" WAVE
    INDEX 01 00:00:00
FILE "05 - Consolidated - Friendly fascism.wav" WAVE
  TRACK 05 AUDIO
    TITLE "Friendly fascism"
    PERFORMER "Consolidated"
    INDEX 01 00:00:00
  TRACK 06 AUDIO
    TITLE "Walking in the sky"
    PERFORMER "Nik Turner"
    INDEX 00 05:01:20
FILE "06 - Nik Turner - Walking in the sky.wav" WAVE
    INDEX 01 00:00:00
FILE "07 - Laibach - Gubert einer Nation.wav" WAVE
  TRACK 07 AUDIO
    TITLE "Gubert einer Nation"
    PERFORMER "Laibach"
    INDEX 01 00:00:00
FILE "08 - Executive Slacks - In and out [Remix].wav" WAVE
  TRACK 08 AUDIO
    TITLE "In and out [Remix]"
    PERFORMER "Executive Slacks"
    INDEX 01 00:00:00
  TRACK 09 AUDIO
    TITLE "Antius"
    PERFORMER "Leaether Strip"
    INDEX 00 05:44:15
FILE "09 - Leaether Strip - Antius.wav" WAVE
    INDEX 01 00:00:00
FILE "10 - Kraftwerk - Metal on metal.wav" WAVE
  TRACK 10 AUDIO
    TITLE "Metal on metal"
    PERFORMER "Kraftwerk"
    INDEX 01 00:00:00
  TRACK 11 AUDIO
    TITLE "Matrix"
    PERFORMER "T.H.D."
    INDEX 00 03:17:35
FILE "11 - T.H.D. - Matrix.wav" WAVE
    INDEX 01 00:00:00
FILE "12 - Test Department - The legacy.wav" WAVE
  TRACK 12 AUDIO
    TITLE "The legacy"
    PERFORMER "Test Department"
    INDEX 01 00:00:00
Код:
AUDIOCHECKER v2.0 beta (build 457) - by Dester - opdester@freemail.hu
~~~~~~~~~~~~~~~~~~~~~~~~~~~~~~~~~~
-=== DO NOT EDIT THIS FILE! ===-
Path: ...\cd2
01 -=- 01 - Front Line Assembly - Mindphazer [Single mix].flac -=- CDDA (100%)
02 -=- 02 - Penal Colony - Reconciled [Remix].flac -=- CDDA (99%)
03 -=- 03 - Psychic TV - United '94.flac -=- CDDA (100%)
04 -=- 04 - Pressurehed - Shockneck.flac -=- CDDA (100%)
05 -=- 05 - Consolidated - Friendly fascism.flac -=- CDDA (100%)
06 -=- 06 - Nik Turner - Walking in the sky.flac -=- CDDA (100%)
07 -=- 07 - Laibach - Gubert einer Nation.flac -=- CDDA (100%)
08 -=- 08 - Executive Slacks - In and out [Remix].flac -=- CDDA (100%)
09 -=- 09 - Leaether Strip - Antius.flac -=- CDDA (100%)
10 -=- 10 - Kraftwerk - Metal on metal.flac -=- MPEG (95%)
11 -=- 11 - T.H.D. - Matrix.flac -=- CDDA (100%)
12 -=- 12 - Test Department - The legacy.flac -=- CDDA (100%)
Summary 92,00% CDDA
124554596
Правила, инструкции, FAQ!!!
Торрент  Добавлен [26 июн 2020, 17:36] Скачать торрент Магнет ссылка
Скачать торрент
[ Размер 18.39 КБ / Просмотров 8 ]

Статус
Проверен 
 
Размер  770.21 МБ
Приватный: Нет (DHT включён)
.torrent скачан  0
 


     Отправить личное сообщение
   
Страница 1 из 1
Показать сообщения за:  Поле сортировки  
Начать новую тему Ответить на тему


Сейчас этот форум просматривают: нет зарегистрированных пользователей и гости: 0


Вы не можете начинать темы
Вы не можете отвечать на сообщения
Вы не можете редактировать свои сообщения
Вы не можете удалять свои сообщения
Вы не можете добавлять вложения

Перейти:  
cron