Начать новую тему Ответить на тему
Статистика раздачи
Размер: 1.17 ГБ | Добавлен: 26 июн 2020, 16:59 | Скачали: 0
Сидеров: 0  [0 байт/сек]    Личеров: 0  [0 байт/сек]
Пред. тема | След. тема 

Автор
Сообщение

СообщениеДобавлено: 26 июн 2020, 16:59 

Ответить с цитатой 

Surge & Subside


Жанр: EBM, Industrial, IDM, Electro, Ambient | Страна-производитель диска: Australia | Год издания: 2011 | Лейбл: Aphotic Audio | Каталог: 09040211
Аудиокодек: FLAC (*.flac) | Тип рипа: tracks+.cue | Битрейт аудио: lossless | Продолжительность: 01:19:06, 01:18:51 | Источник (релизер): What
Треклист:
01. Sensory Gate - Ianus (2:46)
02. Angelspit - Cold Hard Cash (4:05)
03. Empty - Drift (Ginger Snap5 Remix) (5:25)
04. Bound In Oblivion - Pain & Suffering (6:32)
05. Psyche - The Beyond - Live (Flood Relieft Edition) (5:32)
06. Streak - Groovey Booty (6:06)
07. Diverje - Suffer (Control.org V2 Remix) (4:08)
08. Dismantled - Dead On Impact (4:23)
09. Lucidstatic - Operating Directive (7:18)
10. Mangadrive - 67 Gemini Starglider (5:49)
11. NVEiN - All So Wired (5:02)
12. Skrew - Universal Immolation (5:38)
13. Tempest & The Diaspora - IO (3:42)
14. Viral Millennium - Vomitosis (3:47)
15. In-Fused - Misplaced (Iammynewt E-rage Mix) (5:26)
16. Maximum Sexy Pigeon - Tunguska! (Water Retentive Mix) (3:29)
Код:
Exact Audio Copy V1.0 beta 3 from 29. August 2011
EAC extraction logfile from 1. November 2012, 17:45
Various / Surge & Subside CD1
Used drive  : HL-DT-STDVDRAM GH22NS70   Adapter: 1  ID: 0
Read mode               : Secure
Utilize accurate stream : Yes
Defeat audio cache      : Yes
Make use of C2 pointers : No
Read offset correction                      : 667
Overread into Lead-In and Lead-Out          : No
Fill up missing offset samples with silence : Yes
Delete leading and trailing silent blocks   : No
Null samples used in CRC calculations       : Yes
Used interface                              : Native Win32 interface for Win NT & 2000
Gap handling                                : Appended to previous track
Used output format              : User Defined Encoder
Selected bitrate                : 1024 kBit/s
Quality                         : High
Add ID3 tag                     : No
Command line compressor         : C:\Program Files (x86)\Exact Audio Copy\FLAC\FLAC.EXE
Additional command line options : -8 -V -T "ARTIST=%artist%" -T "TITLE=%title%" -T "ALBUM=%albumtitle%" -T "DATE=%year%" -T "TRACKNUMBER=%tracknr%" -T "GENRE=%genre%" -T "PERFORMER=%albuminterpret%" -T "COMPOSER=%composer%" %haslyrics%--tag-from-file=LYRICS="%lyricsfile%"%haslyrics% -T "ALBUMARTIST=%albumartist%" -T "DISCNUMBER=%cdnumber%" -T "TOTALDISCS=%totalcds%" -T "TOTALTRACKS=%numtracks%" -T "COMMENT=%comment%" %source% -o %dest%
TOC of the extracted CD
     Track |   Start  |  Length  | Start sector | End sector
    ---------------------------------------------------------
        1  |  0:00.00 |  2:46.00 |         0    |    12449
        2  |  2:46.00 |  4:05.00 |     12450    |    30824
        3  |  6:51.00 |  5:24.47 |     30825    |    55171
        4  | 12:15.47 |  6:31.39 |     55172    |    84535
        5  | 18:47.11 |  5:32.09 |     84536    |   109444
        6  | 24:19.20 |  6:05.74 |    109445    |   136893
        7  | 30:25.19 |  4:07.57 |    136894    |   155475
        8  | 34:33.01 |  4:23.33 |    155476    |   175233
        9  | 38:56.34 |  7:18.28 |    175234    |   208111
       10  | 46:14.62 |  5:49.15 |    208112    |   234301
       11  | 52:04.02 |  5:01.38 |    234302    |   256914
       12  | 57:05.40 |  5:37.38 |    256915    |   282227
       13  | 62:43.03 |  3:41.38 |    282228    |   298840
       14  | 66:24.41 |  3:46.38 |    298841    |   315828
       15  | 70:11.04 |  5:26.00 |    315829    |   340278
       16  | 75:37.04 |  3:29.00 |    340279    |   355953
Track  1
     Filename A:\EAC Rips\Surge & Subside\CD1\01 - Sensory Gate - Ianus.wav
     Pre-gap length  0:00:02.00
     Peak level 97.7 %
     Extraction speed 0.9 X
     Track quality 99.9 %
     Test CRC 4D00A05A
     Copy CRC 4D00A05A
     Accurately ripped (confidence 2)  [27A0040B]  (AR v1)
     Copy OK
Track  2
     Filename A:\EAC Rips\Surge & Subside\CD1\02 - Angelspit - Cold Hard Cash.wav
     Pre-gap length  0:00:02.00
     Peak level 97.7 %
     Extraction speed 1.1 X
     Track quality 99.9 %
     Test CRC 7BE3872B
     Copy CRC 7BE3872B
     Accurately ripped (confidence 2)  [D201E37F]  (AR v1)
     Copy OK
Track  3
     Filename A:\EAC Rips\Surge & Subside\CD1\03 - Empty - Drift (Ginger Snap5 Remix).wav
     Pre-gap length  0:00:02.00
     Peak level 97.7 %
     Extraction speed 1.5 X
     Track quality 100.0 %
     Test CRC 84C75358
     Copy CRC 84C75358
     Accurately ripped (confidence 2)  [AA9FECCA]  (AR v1)
     Copy OK
Track  4
     Filename A:\EAC Rips\Surge & Subside\CD1\04 - Bound In Oblivion - Pain & Suffering.wav
     Pre-gap length  0:00:02.00
     Peak level 97.7 %
     Extraction speed 1.7 X
     Track quality 100.0 %
     Test CRC A79CCFB8
     Copy CRC A79CCFB8
     Accurately ripped (confidence 2)  [C8AEF356]  (AR v1)
     Copy OK
Track  5
     Filename A:\EAC Rips\Surge & Subside\CD1\05 - Psyche - The Beyond (Live) (Flood Relief Edition).wav
     Pre-gap length  0:00:02.00
     Peak level 97.7 %
     Extraction speed 1.8 X
     Track quality 100.0 %
     Test CRC 8DB2E663
     Copy CRC 8DB2E663
     Accurately ripped (confidence 2)  [B3B01764]  (AR v1)
     Copy OK
Track  6
     Filename A:\EAC Rips\Surge & Subside\CD1\06 - Streak - Groovy Booty.wav
     Pre-gap length  0:00:02.00
     Peak level 97.7 %
     Extraction speed 1.9 X
     Track quality 100.0 %
     Test CRC 9C74D991
     Copy CRC 9C74D991
     Accurately ripped (confidence 2)  [42A9C830]  (AR v1)
     Copy OK
Track  7
     Filename A:\EAC Rips\Surge & Subside\CD1\07 - Diverje - Suffer-Control.Org V2.wav
     Pre-gap length  0:00:02.00
     Peak level 97.7 %
     Extraction speed 1.9 X
     Track quality 100.0 %
     Test CRC FF87E1FC
     Copy CRC FF87E1FC
     Accurately ripped (confidence 2)  [FF26DB64]  (AR v1)
     Copy OK
Track  8
     Filename A:\EAC Rips\Surge & Subside\CD1\08 - Dismantled - Dead On Impact.wav
     Pre-gap length  0:00:02.00
     Peak level 97.7 %
     Extraction speed 2.0 X
     Track quality 100.0 %
     Test CRC 341910A6
     Copy CRC 341910A6
     Accurately ripped (confidence 2)  [FC203C74]  (AR v1)
     Copy OK
Track  9
     Filename A:\EAC Rips\Surge & Subside\CD1\09 - Lucidstatic - Operating Directive.wav
     Pre-gap length  0:00:02.00
     Peak level 97.7 %
     Extraction speed 2.3 X
     Track quality 100.0 %
     Test CRC 189AD4B3
     Copy CRC 189AD4B3
     Accurately ripped (confidence 2)  [C9FFA53D]  (AR v1)
     Copy OK
Track 10
     Filename A:\EAC Rips\Surge & Subside\CD1\10 - Mangadrive - 67 Gemini Starglider.wav
     Pre-gap length  0:00:02.00
     Peak level 97.7 %
     Extraction speed 2.3 X
     Track quality 100.0 %
     Test CRC 78855D38
     Copy CRC 78855D38
     Accurately ripped (confidence 2)  [108D29C5]  (AR v1)
     Copy OK
Track 11
     Filename A:\EAC Rips\Surge & Subside\CD1\11 - Nvein - All So Wired.wav
     Pre-gap length  0:00:02.00
     Peak level 97.7 %
     Extraction speed 2.4 X
     Track quality 100.0 %
     Test CRC BD9D04B3
     Copy CRC BD9D04B3
     Accurately ripped (confidence 2)  [F24FBA41]  (AR v1)
     Copy OK
Track 12
     Filename A:\EAC Rips\Surge & Subside\CD1\12 - Skrew - Universal Immilation.wav
     Pre-gap length  0:00:02.00
     Peak level 97.7 %
     Extraction speed 2.5 X
     Track quality 100.0 %
     Test CRC 5B698748
     Copy CRC 5B698748
     Accurately ripped (confidence 2)  [514C6F67]  (AR v1)
     Copy OK
Track 13
     Filename A:\EAC Rips\Surge & Subside\CD1\13 - Tempest & The Diaspora - Io.wav
     Pre-gap length  0:00:02.00
     Peak level 97.7 %
     Extraction speed 2.4 X
     Track quality 100.0 %
     Test CRC 1437C614
     Copy CRC 1437C614
     Accurately ripped (confidence 2)  [03D1F1CF]  (AR v1)
     Copy OK
Track 14
     Filename A:\EAC Rips\Surge & Subside\CD1\14 - Viral Millenium - Vomitosis.wav
     Pre-gap length  0:00:02.00
     Peak level 97.7 %
     Extraction speed 2.5 X
     Track quality 100.0 %
     Test CRC 42C170A7
     Copy CRC 42C170A7
     Accurately ripped (confidence 2)  [4D9603A4]  (AR v1)
     Copy OK
Track 15
     Filename A:\EAC Rips\Surge & Subside\CD1\15 - In-Fused - Misplaced (Iammynewt E-RAGE Mix).wav
     Pre-gap length  0:00:02.00
     Peak level 97.7 %
     Extraction speed 2.4 X
     Track quality 99.9 %
     Test CRC 1126D0D3
     Copy CRC 1126D0D3
     Accurately ripped (confidence 2)  [7D075083]  (AR v1)
     Copy OK
Track 16
     Filename A:\EAC Rips\Surge & Subside\CD1\16 - Maximum Sexy Pigeon - Tunguska! (Water Retentive Mix).wav
     Pre-gap length  0:00:02.00
     Peak level 97.7 %
     Extraction speed 2.6 X
     Track quality 100.0 %
     Test CRC 7D982956
     Copy CRC 7D982956
     Accurately ripped (confidence 2)  [57E12F29]  (AR v1)
     Copy OK
All tracks accurately ripped
No errors occurred
End of status report
---- CUETools DB Plugin V2.1.3
[CTDB TOCID: nRE0no2XSf6._ez25OXxxNLzhiw-] disk not present in database, Submit result: nRE0no2XSf6._ez25OXxxNLzhiw- has been uploaded
==== Log checksum 12DE3FA02414473E761D7A95BAFB9DB14B3999994A4C445BABD610B0592442E3 ====
Код:
REM GENRE Industrial
REM DATE 2011
REM DISCID F3128A10
REM COMMENT "ExactAudioCopy v1.0b3"
FILE "01 - Sensory Gate - Ianus.wav" WAVE
  TRACK 01 AUDIO
    FLAGS DCP
    INDEX 01 00:00:00
  TRACK 02 AUDIO
    FLAGS DCP
    INDEX 00 02:44:00
FILE "02 - Angelspit - Cold Hard Cash.wav" WAVE
    INDEX 01 00:00:00
  TRACK 03 AUDIO
    FLAGS DCP
    INDEX 00 04:03:00
FILE "03 - Empty - Drift (Ginger Snap5 Remix).wav" WAVE
    INDEX 01 00:00:00
  TRACK 04 AUDIO
    FLAGS DCP
    INDEX 00 05:22:47
FILE "04 - Bound In Oblivion - Pain & Suffering.wav" WAVE
    INDEX 01 00:00:00
  TRACK 05 AUDIO
    FLAGS DCP
    INDEX 00 06:29:39
FILE "05 - Psyche - The Beyond (Live) (Flood Relief Edition).wav" WAVE
    INDEX 01 00:00:00
  TRACK 06 AUDIO
    FLAGS DCP
    INDEX 00 05:30:09
FILE "06 - Streak - Groovy Booty.wav" WAVE
    INDEX 01 00:00:00
  TRACK 07 AUDIO
    FLAGS DCP
    INDEX 00 06:03:74
FILE "07 - Diverje - Suffer-Control.Org V2.wav" WAVE
    INDEX 01 00:00:00
  TRACK 08 AUDIO
    FLAGS DCP
    INDEX 00 04:05:57
FILE "08 - Dismantled - Dead On Impact.wav" WAVE
    INDEX 01 00:00:00
  TRACK 09 AUDIO
    FLAGS DCP
    INDEX 00 04:21:33
FILE "09 - Lucidstatic - Operating Directive.wav" WAVE
    INDEX 01 00:00:00
  TRACK 10 AUDIO
    FLAGS DCP
    INDEX 00 07:16:28
FILE "10 - Mangadrive - 67 Gemini Starglider.wav" WAVE
    INDEX 01 00:00:00
  TRACK 11 AUDIO
    FLAGS DCP
    INDEX 00 05:47:15
FILE "11 - Nvein - All So Wired.wav" WAVE
    INDEX 01 00:00:00
  TRACK 12 AUDIO
    FLAGS DCP
    INDEX 00 04:59:38
FILE "12 - Skrew - Universal Immilation.wav" WAVE
    INDEX 01 00:00:00
  TRACK 13 AUDIO
    FLAGS DCP
    INDEX 00 05:35:38
FILE "13 - Tempest & The Diaspora - Io.wav" WAVE
    INDEX 01 00:00:00
  TRACK 14 AUDIO
    FLAGS DCP
    INDEX 00 03:39:38
FILE "14 - Viral Millenium - Vomitosis.wav" WAVE
    INDEX 01 00:00:00
  TRACK 15 AUDIO
    FLAGS DCP
    INDEX 00 03:44:38
FILE "15 - In-Fused - Misplaced (Iammynewt E-RAGE Mix).wav" WAVE
    INDEX 01 00:00:00
  TRACK 16 AUDIO
    FLAGS DCP
    INDEX 00 05:24:00
FILE "16 - Maximum Sexy Pigeon - Tunguska! (Water Retentive Mix).wav" WAVE
    INDEX 01 00:00:00
01. P45K - Adrift (3:15)
02. Assemblage 23 - Raw (6:47)
03. I, Parasite - A Violence At Rest (7:43)
04. Android Lust - God In The Hole (3:49)
05. Soulchasm - My Facade (Empty Remix) (4:35)
06. Autoclav1.1 - Waxing (4:45)
07. Anhedonia - Rain (5:23)
08. Motion Fused - Reflection Of Madness (Extended) (4:37)
09. Angeltheory - The Wind (4:12)
10. Headdreamer - Colder (5:22)
11. Collide - Ocean (5:26)
12. M(i)lkrun - Lard Ram (3:48)
13. Dark Territory - Trista Me (Angeltheory Mantra Mix) (4:34)
14. Iammynewt - itHURTS (3:55)
15. Flood Of Rain - Grey Sky (5:34)
16. Blast Radius - To Find Them Frozen (5:07)
Код:
Exact Audio Copy V1.0 beta 3 from 29. August 2011
EAC extraction logfile from 1. November 2012, 19:28
Various / Surge & Subside CD2
Used drive  : HL-DT-STDVDRAM GH22NS70   Adapter: 1  ID: 0
Read mode               : Secure
Utilize accurate stream : Yes
Defeat audio cache      : Yes
Make use of C2 pointers : No
Read offset correction                      : 667
Overread into Lead-In and Lead-Out          : No
Fill up missing offset samples with silence : Yes
Delete leading and trailing silent blocks   : No
Null samples used in CRC calculations       : Yes
Used interface                              : Native Win32 interface for Win NT & 2000
Gap handling                                : Appended to previous track
Used output format              : User Defined Encoder
Selected bitrate                : 1024 kBit/s
Quality                         : High
Add ID3 tag                     : No
Command line compressor         : C:\Program Files (x86)\Exact Audio Copy\FLAC\FLAC.EXE
Additional command line options : -8 -V -T "ARTIST=%artist%" -T "TITLE=%title%" -T "ALBUM=%albumtitle%" -T "DATE=%year%" -T "TRACKNUMBER=%tracknr%" -T "GENRE=%genre%" -T "PERFORMER=%albuminterpret%" -T "COMPOSER=%composer%" %haslyrics%--tag-from-file=LYRICS="%lyricsfile%"%haslyrics% -T "ALBUMARTIST=%albumartist%" -T "DISCNUMBER=%cdnumber%" -T "TOTALDISCS=%totalcds%" -T "TOTALTRACKS=%numtracks%" -T "COMMENT=%comment%" %source% -o %dest%
TOC of the extracted CD
     Track |   Start  |  Length  | Start sector | End sector
    ---------------------------------------------------------
        1  |  0:00.00 |  3:15.00 |         0    |    14624
        2  |  3:15.00 |  6:47.00 |     14625    |    45149
        3  | 10:02.00 |  7:42.44 |     45150    |    79843
        4  | 17:44.44 |  3:49.00 |     79844    |    97018
        5  | 21:33.44 |  4:35.19 |     97019    |   117662
        6  | 26:08.63 |  4:45.19 |    117663    |   139056
        7  | 30:54.07 |  5:22.38 |    139057    |   163244
        8  | 36:16.45 |  4:37.19 |    163245    |   184038
        9  | 40:53.64 |  4:11.38 |    184039    |   202901
       10  | 45:05.27 |  5:22.37 |    202902    |   227088
       11  | 50:27.64 |  5:25.58 |    227089    |   251521
       12  | 55:53.47 |  3:48.19 |    251522    |   268640
       13  | 59:41.66 |  4:34.00 |    268641    |   289190
       14  | 64:15.66 |  3:54.38 |    289191    |   306778
       15  | 68:10.29 |  5:33.38 |    306779    |   331791
       16  | 73:43.67 |  5:07.00 |    331792    |   354816
Track  1
     Filename A:\EAC Rips\Surge & Subside\CD2\01 - P45K - Adrift.wav
     Pre-gap length  0:00:02.00
     Peak level 97.7 %
     Extraction speed 1.2 X
     Track quality 100.0 %
     Test CRC AF887989
     Copy CRC AF887989
     Accurately ripped (confidence 2)  [C0115150]  (AR v1)
     Copy OK
Track  2
     Filename A:\EAC Rips\Surge & Subside\CD2\02 - Assemblage 23 - Raw (Interface Remix).wav
     Pre-gap length  0:00:02.00
     Peak level 97.7 %
     Extraction speed 1.3 X
     Track quality 99.9 %
     Test CRC 815CB1AB
     Copy CRC 815CB1AB
     Accurately ripped (confidence 2)  [861680BA]  (AR v1)
     Copy OK
Track  3
     Filename A:\EAC Rips\Surge & Subside\CD2\03 - I, Parasite - A Violence At Rest.wav
     Pre-gap length  0:00:02.00
     Peak level 97.7 %
     Extraction speed 1.7 X
     Track quality 100.0 %
     Test CRC 990BA686
     Copy CRC 990BA686
     Accurately ripped (confidence 2)  [8E0656EB]  (AR v1)
     Copy OK
Track  4
     Filename A:\EAC Rips\Surge & Subside\CD2\04 - Android Lust - God In The Hole.wav
     Pre-gap length  0:00:02.00
     Peak level 97.7 %
     Extraction speed 1.6 X
     Track quality 100.0 %
     Test CRC 658AFCB0
     Copy CRC 658AFCB0
     Accurately ripped (confidence 2)  [33638905]  (AR v1)
     Copy OK
Track  5
     Filename A:\EAC Rips\Surge & Subside\CD2\05 - Soulchasm - My Facade (Empty Remix).wav
     Pre-gap length  0:00:02.00
     Peak level 97.7 %
     Extraction speed 1.8 X
     Track quality 100.0 %
     Test CRC F42380C3
     Copy CRC F42380C3
     Accurately ripped (confidence 2)  [DCFBE0E8]  (AR v1)
     Copy OK
Track  6
     Filename A:\EAC Rips\Surge & Subside\CD2\06 - Autoclav1.1 - Waxing.wav
     Pre-gap length  0:00:02.00
     Peak level 97.7 %
     Extraction speed 1.9 X
     Track quality 100.0 %
     Test CRC D8D771FD
     Copy CRC D8D771FD
     Accurately ripped (confidence 2)  [9B0702FD]  (AR v1)
     Copy OK
Track  7
     Filename A:\EAC Rips\Surge & Subside\CD2\07 - Anhedonia - Rain.wav
     Pre-gap length  0:00:02.00
     Peak level 97.7 %
     Extraction speed 2.0 X
     Track quality 100.0 %
     Test CRC 6B12C4C1
     Copy CRC 6B12C4C1
     Accurately ripped (confidence 2)  [B9B96D31]  (AR v1)
     Copy OK
Track  8
     Filename A:\EAC Rips\Surge & Subside\CD2\08 - Motion Fused - Reflection Of Madness (Extended).wav
     Pre-gap length  0:00:02.00
     Peak level 97.7 %
     Extraction speed 2.1 X
     Track quality 100.0 %
     Test CRC 2B7B1364
     Copy CRC 2B7B1364
     Accurately ripped (confidence 2)  [39DABC74]  (AR v1)
     Copy OK
Track  9
     Filename A:\EAC Rips\Surge & Subside\CD2\09 - Angeltheory - The Wind.wav
     Pre-gap length  0:00:02.00
     Peak level 97.7 %
     Extraction speed 2.1 X
     Track quality 100.0 %
     Test CRC 7B8E71BB
     Copy CRC 7B8E71BB
     Accurately ripped (confidence 2)  [60E40E03]  (AR v1)
     Copy OK
Track 10
     Filename A:\EAC Rips\Surge & Subside\CD2\10 - Headdreamer - Colder.wav
     Pre-gap length  0:00:02.00
     Peak level 97.7 %
     Extraction speed 2.3 X
     Track quality 100.0 %
     Test CRC 264B4D4A
     Copy CRC 264B4D4A
     Accurately ripped (confidence 2)  [F2895AE9]  (AR v1)
     Copy OK
Track 11
     Filename A:\EAC Rips\Surge & Subside\CD2\11 - Collide - Ocean.wav
     Pre-gap length  0:00:02.00
     Peak level 97.7 %
     Extraction speed 2.4 X
     Track quality 100.0 %
     Test CRC 941A90E5
     Copy CRC 941A90E5
     Accurately ripped (confidence 2)  [1AE7CBB8]  (AR v1)
     Copy OK
Track 12
     Filename A:\EAC Rips\Surge & Subside\CD2\12 - Milkrun - Lard Ram.wav
     Pre-gap length  0:00:02.00
     Peak level 97.7 %
     Extraction speed 2.3 X
     Track quality 100.0 %
     Test CRC 25B75C8F
     Copy CRC 25B75C8F
     Accurately ripped (confidence 2)  [04139EDB]  (AR v1)
     Copy OK
Track 13
     Filename A:\EAC Rips\Surge & Subside\CD2\13 - Dark Territoy - Trista Me (Angel Theory Mantra Mix).wav
     Pre-gap length  0:00:02.00
     Peak level 97.7 %
     Extraction speed 2.5 X
     Track quality 100.0 %
     Test CRC 731F7475
     Copy CRC 731F7475
     Accurately ripped (confidence 2)  [BF93B5B6]  (AR v1)
     Copy OK
Track 14
     Filename A:\EAC Rips\Surge & Subside\CD2\14 - Iammynewt - ItHurts.wav
     Pre-gap length  0:00:02.00
     Peak level 97.7 %
     Extraction speed 2.5 X
     Track quality 100.0 %
     Test CRC FCFCE23B
     Copy CRC FCFCE23B
     Accurately ripped (confidence 2)  [63E6FE3B]  (AR v1)
     Copy OK
Track 15
     Filename A:\EAC Rips\Surge & Subside\CD2\15 - Flood Of Rain - Grey Sky.wav
     Pre-gap length  0:00:02.00
     Peak level 97.7 %
     Extraction speed 2.6 X
     Track quality 100.0 %
     Test CRC 0F670DEC
     Copy CRC 0F670DEC
     Accurately ripped (confidence 2)  [B3A20CC7]  (AR v1)
     Copy OK
Track 16
     Filename A:\EAC Rips\Surge & Subside\CD2\16 - Blast Radius - To Find Them Frozen.wav
     Pre-gap length  0:00:02.00
     Peak level 97.7 %
     Extraction speed 2.7 X
     Track quality 100.0 %
     Test CRC 7C03DB5C
     Copy CRC 7C03DB5C
     Accurately ripped (confidence 2)  [FA4F8547]  (AR v1)
     Copy OK
All tracks accurately ripped
No errors occurred
End of status report
---- CUETools DB Plugin V2.1.3
[CTDB TOCID: S2sabBfkis2b7agZz6jlZBGhMX4-] disk not present in database, Submit result: S2sabBfkis2b7agZz6jlZBGhMX4- has been uploaded
==== Log checksum 2A7FE3E4544A51C4106DF05B2AAB9BFF894FDDA43833BEAC9E16C4060C35AF81 ====
Код:
REM GENRE Industrial
REM DATE 2011
REM DISCID F4127A10
REM COMMENT "ExactAudioCopy v1.0b3"
FILE "01 - P45K - Adrift.wav" WAVE
  TRACK 01 AUDIO
    FLAGS DCP
    INDEX 01 00:00:00
  TRACK 02 AUDIO
    FLAGS DCP
    INDEX 00 03:13:00
FILE "02 - Assemblage 23 - Raw (Interface Remix).wav" WAVE
    INDEX 01 00:00:00
  TRACK 03 AUDIO
    FLAGS DCP
    INDEX 00 06:45:00
FILE "03 - I, Parasite - A Violence At Rest.wav" WAVE
    INDEX 01 00:00:00
  TRACK 04 AUDIO
    FLAGS DCP
    INDEX 00 07:40:44
FILE "04 - Android Lust - God In The Hole.wav" WAVE
    INDEX 01 00:00:00
  TRACK 05 AUDIO
    FLAGS DCP
    INDEX 00 03:47:00
FILE "05 - Soulchasm - My Facade (Empty Remix).wav" WAVE
    INDEX 01 00:00:00
  TRACK 06 AUDIO
    FLAGS DCP
    INDEX 00 04:33:19
FILE "06 - Autoclav1.1 - Waxing.wav" WAVE
    INDEX 01 00:00:00
  TRACK 07 AUDIO
    FLAGS DCP
    INDEX 00 04:43:19
FILE "07 - Anhedonia - Rain.wav" WAVE
    INDEX 01 00:00:00
  TRACK 08 AUDIO
    FLAGS DCP
    INDEX 00 05:20:38
FILE "08 - Motion Fused - Reflection Of Madness (Extended).wav" WAVE
    INDEX 01 00:00:00
  TRACK 09 AUDIO
    FLAGS DCP
    INDEX 00 04:35:19
FILE "09 - Angeltheory - The Wind.wav" WAVE
    INDEX 01 00:00:00
  TRACK 10 AUDIO
    FLAGS DCP
    INDEX 00 04:09:38
FILE "10 - Headdreamer - Colder.wav" WAVE
    INDEX 01 00:00:00
  TRACK 11 AUDIO
    FLAGS DCP
    INDEX 00 05:20:37
FILE "11 - Collide - Ocean.wav" WAVE
    INDEX 01 00:00:00
  TRACK 12 AUDIO
    FLAGS DCP
    INDEX 00 05:23:58
FILE "12 - Milkrun - Lard Ram.wav" WAVE
    INDEX 01 00:00:00
  TRACK 13 AUDIO
    FLAGS DCP
    INDEX 00 03:46:19
FILE "13 - Dark Territoy - Trista Me (Angel Theory Mantra Mix).wav" WAVE
    INDEX 01 00:00:00
  TRACK 14 AUDIO
    FLAGS DCP
    INDEX 00 04:32:00
FILE "14 - Iammynewt - ItHurts.wav" WAVE
    INDEX 01 00:00:00
  TRACK 15 AUDIO
    FLAGS DCP
    INDEX 00 03:52:38
FILE "15 - Flood Of Rain - Grey Sky.wav" WAVE
    INDEX 01 00:00:00
  TRACK 16 AUDIO
    FLAGS DCP
    INDEX 00 05:31:38
FILE "16 - Blast Radius - To Find Them Frozen.wav" WAVE
    INDEX 01 00:00:00

N
ICE FLIGHT!..
Правила, инструкции, FAQ!!!
Торрент  Добавлен [26 июн 2020, 16:59] Скачать торрент Магнет ссылка
Скачать торрент
[ Размер 15.79 КБ / Просмотров 6 ]

Статус
Проверен 
 
Размер  1.17 ГБ
Приватный: Нет (DHT включён)
.torrent скачан  0
 


     Отправить личное сообщение
   
Страница 1 из 1
Показать сообщения за:  Поле сортировки  
Начать новую тему Ответить на тему


Сейчас этот форум просматривают: нет зарегистрированных пользователей и гости: 0


Вы не можете начинать темы
Вы не можете отвечать на сообщения
Вы не можете редактировать свои сообщения
Вы не можете удалять свои сообщения
Вы не можете добавлять вложения

Перейти:  
cron