Начать новую тему Ответить на тему
Статистика раздачи
Размер: 206.64 МБ | Добавлен: 26 июн 2020, 20:29 | Скачали: 0
Сидеров: 0  [0 байт/сек]    Личеров: 0  [0 байт/сек]
Пред. тема | След. тема 

Автор
Сообщение

СообщениеДобавлено: 26 июн 2020, 20:29 

Ответить с цитатой 

Icon Of Coil - Access And Amplify
Жанр: EBM, Industrial
Год выпуска диска: 2002
Производитель диска: Norway
Аудио кодек: FLAC
Тип рипа: tracks+.cue
Продолжительность: 29:15
Трэклист:
1 Access And Amplify 4:59
2 The Soul Is In The B-side 7:10
3 Access And Amplify (Club Mix) 7:42
4 Access And Amplify (Hudlager Remix) 5:21
5 Access And Amplify (Edit) 4:01
Exact Audio Copy V0.99 prebeta 5 from 4. May 2009
EAC extraction logfile from 15. August 2009, 1:45
Icon Of Coil / Access And Amplify
Used drive : ASUS DRW-1604P Adapter: 0 ID: 2
Read mode : Secure
Utilize accurate stream : Yes
Defeat audio cache : Yes
Make use of C2 pointers : No
Read offset correction : 48
Overread into Lead-In and Lead-Out : No
Fill up missing offset samples with silence : Yes
Delete leading and trailing silent blocks : No
Null samples used in CRC calculations : Yes
Used interface : Installed external ASPI interface
Gap handling : Appended to previous track
Used output format : User Defined Encoder
Selected bitrate : 320 kBit/s
Quality : High
Add ID3 tag : No
Command line compressor : C:\Program Files\FLAC\flac.exe
Additional command line options : -V -8 -T "artist=%a" -T "title=%t" -T "album=%g" -T "date=%y" -T "tracknumber=%n" -T "genre=%m" %s
TOC of the extracted CD
Track | Start | Length | Start sector | End sector
---------------------------------------------------------
1 | 0:00.00 | 4:59.12 | 0 | 22436
2 | 4:59.12 | 7:10.51 | 22437 | 54737
3 | 12:09.63 | 7:42.39 | 54738 | 89426
4 | 19:52.27 | 5:21.53 | 89427 | 113554
5 | 25:14.05 | 4:01.53 | 113555 | 131682
Track 1
Filename C:\Documents and Settings\Korisnik\Desktop\Encoded\Icon Of Coil\Access And Amplify\01 - Access And Amplify.wav
Pre-gap length 0:00:02.00
Peak level 99.8 %
Track quality 100.0 %
Test CRC 3D0C75F7
Copy CRC 3D0C75F7
Cannot be verified as accurate (confidence 9) [094CD414], AccurateRip returned [8EAF2F1A]
Copy OK
Track 2
Filename C:\Documents and Settings\Korisnik\Desktop\Encoded\Icon Of Coil\Access And Amplify\02 - The Soul Is In The B-side.wav
Peak level 99.8 %
Track quality 99.9 %
Test CRC 4C32F32A
Copy CRC 4C32F32A
Cannot be verified as accurate (confidence 9) [F8A758B3], AccurateRip returned [D8B6DDA7]
Copy OK
Track 3
Filename C:\Documents and Settings\Korisnik\Desktop\Encoded\Icon Of Coil\Access And Amplify\03 - Access And Amplify (Club Mix).wav
Peak level 99.8 %
Track quality 100.0 %
Test CRC CB55811E
Copy CRC CB55811E
Cannot be verified as accurate (confidence 9) [2B461FE4], AccurateRip returned [0C081700]
Copy OK
Track 4
Filename C:\Documents and Settings\Korisnik\Desktop\Encoded\Icon Of Coil\Access And Amplify\04 - Access And Amplify (Hudlager Remix).wav
Peak level 99.8 %
Track quality 100.0 %
Test CRC 79C7D2EC
Copy CRC 79C7D2EC
Cannot be verified as accurate (confidence 9) [B8AB94A0], AccurateRip returned [42099DFA]
Copy OK
Track 5
Filename C:\Documents and Settings\Korisnik\Desktop\Encoded\Icon Of Coil\Access And Amplify\05 - Access And Amplify (Edit).wav
Peak level 99.8 %
Track quality 100.0 %
Test CRC A57799CD
Copy CRC A57799CD
Cannot be verified as accurate (confidence 9) [C6A3268A], AccurateRip returned [77AC58C4]
Copy OK
No tracks could be verified as accurate
You may have a different pressing from the one(s) in the database
No errors occurred
End of status report
REM GENRE Techno-Industrial
REM DATE 2002
REM DISCID 2D06DB05
REM COMMENT "ExactAudioCopy v0.99pb5"
PERFORMER "Icon Of Coil"
TITLE "Access And Amplify"
FILE "Icon Of Coil\Access And Amplify\01 - Access And Amplify.wav" WAVE
TRACK 01 AUDIO
TITLE "Access And Amplify"
PERFORMER "Icon Of Coil"
INDEX 01 00:00:00
FILE "Icon Of Coil\Access And Amplify\02 - The Soul Is In The B-side.wav" WAVE
TRACK 02 AUDIO
TITLE "The Soul Is In The B-side"
PERFORMER "Icon Of Coil"
INDEX 01 00:00:00
FILE "Icon Of Coil\Access And Amplify\03 - Access And Amplify (Club Mix).wav" WAVE
TRACK 03 AUDIO
TITLE "Access And Amplify (Club Mix)"
PERFORMER "Icon Of Coil"
INDEX 01 00:00:00
FILE "Icon Of Coil\Access And Amplify\04 - Access And Amplify (Hudlager Remix).wav" WAVE
TRACK 04 AUDIO
TITLE "Access And Amplify (Hudlager Remix)"
PERFORMER "Icon Of Coil"
INDEX 01 00:00:00
FILE "Icon Of Coil\Access And Amplify\05 - Access And Amplify (Edit).wav" WAVE
TRACK 05 AUDIO
TITLE "Access And Amplify (Edit)"
PERFORMER "Icon Of Coil"
INDEX 01 00:00:00
Релиз взят с What.cd. Спасибо релизерам!
Правила, инструкции, FAQ!!!
Торрент  Добавлен [26 июн 2020, 20:29] Скачать торрент Магнет ссылка
Скачать торрент
[ Размер 17.09 КБ / Просмотров 7 ]

Статус
Проверен 
 
Размер  206.64 МБ
Приватный: Нет (DHT включён)
.torrent скачан  0
 


     Отправить личное сообщение
   
Страница 1 из 1
Показать сообщения за:  Поле сортировки  
Начать новую тему Ответить на тему


Сейчас этот форум просматривают: нет зарегистрированных пользователей и гости: 0


Вы не можете начинать темы
Вы не можете отвечать на сообщения
Вы не можете редактировать свои сообщения
Вы не можете удалять свои сообщения
Вы не можете добавлять вложения

Перейти:  
cron