Начать новую тему Ответить на тему
Статистика раздачи
Размер: 663.88 МБ | Добавлен: 26 июн 2020, 21:12 | Скачали: 0
Сидеров: 0  [0 байт/сек]    Личеров: 0  [0 байт/сек]
Пред. тема | След. тема 

Автор
Сообщение

СообщениеДобавлено: 26 июн 2020, 21:12 

Ответить с цитатой 

Hocico / El Ultimo Minuto (Antes de tu Mundo Caiga) (3CD, Box Set, Limited Edition)
Жанр: EBM, Industrial
Носитель: CD
Страна-производитель диска (релиза): Germany
Год издания: 2012
Издатель (лейбл): Out Of Line
Номер по каталогу: OUT 582 / OUT 583 / OUT 584
Страна исполнителя (группы): Mexico
Аудиокодек: FLAC (*.flac)
Тип рипа: image+.cue
Продолжительность: 0:55:06:03++0:23:44:66+0:11:10:20
Источник: собственный рип
Наличие сканов в содержимом раздачи: нет
Треклист:
Код:
1-1 T.O.S. Of Reality 5:13
1-2 Intruder (Twin Version) 4:40
1-3 The Watched 5:36
1-4 Dead Trust 5:36
1-5 Polarity 3:36
1-6 Mundo Imposible 3:27
1-7 Vile Whispers 5:08
1-8 3...2...1... 5:06
1-9 Toxic 5:12
1-10 Over The Limit 4:39
1-11 El Último Minuto 6:55
Код:
2-1 Surfing In The Plastic Age 6:05
2-2 Firewalking 4:43
2-3 Intruder (SA42 Remix) 5:19
2-4 Polarity (Mixed Bipolar Disorder By KiEw) 4:14
2-5 Intruder (Tdtd Remix) 3:24
Код:
3-1 Prophecy Of Hate (Tape Track 1996) 5:08
3-2 Deranged (Tape Track 1996) 6:02
Код:
Exact Audio Copy V1.0 beta 3 from 29. August 2011
Отчёт EAC об извлечении, выполненном 13. ноября 2019, 1:20
Hocico / El Ultimo Minuto (Antes de tu Mundo Caiga)
Дисковод: TSSTcorpCDDVDW SH-224DB   Adapter: 1  ID: 0
Режим чтения                 : Достоверность
Использование точного потока : Да
Отключение кэша аудио        : Да
Использование указателей C2  : Нет
Коррекция смещения при чтении                     : 6
Способность читать области Lead-in и Lead-out     : Нет
Заполнение пропущенных сэмплов тишиной            : Да
Удаление блоков с тишиной в начале и конце        : Нет
При вычислениях CRC использовались нулевые сэмплы : Да
Интерфейс                                         : Встроенный Win32-интерфейс для Win NT/2000
Выходной формат          : Пользовательский кодировщик
Выбранный битрейт        : 128 kBit/s
Качество                 : Высокий
Добавление ID3-тега      : Нет
Утилита сжатия           : C:\Program Files (x86)\FLAC\flac.exe
Дополнительные параметры : -V -8 -T "Date=%year%" -T "Genre=%genre%" %source%
TOC извлечённого CD
     Трек |   Старт  | Длительность | Начальный сектор | Конечный сектор
    ---------------------------------------------------------------------
       1  |  0:00.00 |    5:13.20   |           0      |      23494
       2  |  5:13.20 |    4:39.37   |       23495      |      44456
       3  |  9:52.57 |    5:35.42   |       44457      |      69623
       4  | 15:28.24 |    5:36.21   |       69624      |      94844
       5  | 21:04.45 |    3:35.59   |       94845      |     111028
       6  | 24:40.29 |    3:27.24   |      111029      |     126577
       7  | 28:07.53 |    5:07.57   |      126578      |     149659
       8  | 33:15.35 |    5:05.36   |      149660      |     172570
       9  | 38:20.71 |    5:11.50   |      172571      |     195945
      10  | 43:32.46 |    4:38.63   |      195946      |     216858
      11  | 48:11.34 |    6:54.44   |      216859      |     247952
Характеристики диапазона извлечения и сообщения об ошибках
Выбранный диапазон
     Имя файла C:\EAC\Hocico - El Ultimo Minuto Antes De Que Tu Mundo Caiga - 2012 (Box Set, Limited Edition, 3CD)\CD1 - Album\Hocico - El Ultimo Minuto (Antes de tu Mundo Caiga).wav
     Пиковый уровень 100.0 %
     Скорость извлечения 7.3 X
     Качество диапазона 99.9 %
     CRC теста B8F37BD8
     CRC копии B8F37BD8
     Копирование... OK
Ошибок не произошло
AccurateRip: сводка
Трек  1  : извлечено точно (доверие 16)  [D7963641]  (AR v2)
Трек  2  : извлечено точно (доверие 16)  [B5691D61]  (AR v2)
Трек  3  : извлечено точно (доверие 16)  [F1442987]  (AR v2)
Трек  4  : извлечено точно (доверие 16)  [F51919C3]  (AR v2)
Трек  5  : извлечено точно (доверие 16)  [E19BF8A3]  (AR v2)
Трек  6  : извлечено точно (доверие 15)  [E5EFD781]  (AR v2)
Трек  7  : извлечено точно (доверие 16)  [EC822A76]  (AR v2)
Трек  8  : извлечено точно (доверие 16)  [295D853B]  (AR v2)
Трек  9  : извлечено точно (доверие 16)  [ECFD20D1]  (AR v2)
Трек 10  : извлечено точно (доверие 16)  [F21EEAED]  (AR v2)
Трек 11  : извлечено точно (доверие 16)  [0A573F7C]  (AR v2)
Все треки извлечены точно
Конец отчёта
==== Контрольная сумма отчёта AF5495C2C22B1FE253E29073CA2FB3505BC65F5B6773B830E302C6F19E3599EB ====
Код:
Exact Audio Copy V1.0 beta 3 from 29. August 2011
Отчёт EAC об извлечении, выполненном 13. ноября 2019, 0:56
Hocico / Bonus-CD El Ultimo Minuto (Antes de tu Mundo Caiga)
Дисковод: TSSTcorpCDDVDW SH-224DB   Adapter: 1  ID: 0
Режим чтения                 : Достоверность
Использование точного потока : Да
Отключение кэша аудио        : Да
Использование указателей C2  : Нет
Коррекция смещения при чтении                     : 6
Способность читать области Lead-in и Lead-out     : Нет
Заполнение пропущенных сэмплов тишиной            : Да
Удаление блоков с тишиной в начале и конце        : Нет
При вычислениях CRC использовались нулевые сэмплы : Да
Интерфейс                                         : Встроенный Win32-интерфейс для Win NT/2000
Выходной формат          : Пользовательский кодировщик
Выбранный битрейт        : 128 kBit/s
Качество                 : Высокий
Добавление ID3-тега      : Нет
Утилита сжатия           : C:\Program Files (x86)\FLAC\flac.exe
Дополнительные параметры : -V -8 -T "Date=%year%" -T "Genre=%genre%" %source%
TOC извлечённого CD
     Трек |   Старт  | Длительность | Начальный сектор | Конечный сектор
    ---------------------------------------------------------------------
       1  |  0:00.00 |    6:04.57   |           0      |      27356
       2  |  6:04.57 |    4:42.59   |       27357      |      48565
       3  | 10:47.41 |    5:18.48   |       48566      |      72463
       4  | 16:06.14 |    4:14.22   |       72464      |      91535
       5  | 20:20.36 |    3:24.30   |       91536      |     106865
Характеристики диапазона извлечения и сообщения об ошибках
Выбранный диапазон
     Имя файла C:\EAC\Hocico - El Ultimo Minuto Antes De Que Tu Mundo Caiga - 2012 (Box Set, Limited Edition, 3CD)\CD2 - Bonus CD\Hocico - Bonus-CD El Ultimo Minuto (Antes de tu Mundo Caiga).wav
     Пиковый уровень 100.0 %
     Скорость извлечения 2.4 X
     Качество диапазона 100.0 %
     CRC теста 26D1C6E5
     CRC копии 26D1C6E5
     Копирование... OK
Ошибок не произошло
AccurateRip: сводка
Трек  1  : извлечено точно (доверие 13)  [4FE4229F]  (AR v2)
Трек  2  : извлечено точно (доверие 13)  [BCE7C9CB]  (AR v2)
Трек  3  : извлечено точно (доверие 13)  [46C85CD1]  (AR v2)
Трек  4  : извлечено точно (доверие 13)  [E8E384F7]  (AR v2)
Трек  5  : извлечено точно (доверие 13)  [32793797]  (AR v2)
Все треки извлечены точно
Конец отчёта
==== Контрольная сумма отчёта 4414297F4DB683DD2CEEA29E5F6E008183E437CD6C4FEA49CB740AEC23549EB1 ====
Код:
Exact Audio Copy V1.0 beta 3 from 29. August 2011
Отчёт EAC об извлечении, выполненном 13. ноября 2019, 0:32
Hocico / Prophecy Of Hate
Дисковод: TSSTcorpCDDVDW SH-224DB   Adapter: 1  ID: 0
Режим чтения                 : Достоверность
Использование точного потока : Да
Отключение кэша аудио        : Да
Использование указателей C2  : Нет
Коррекция смещения при чтении                     : 6
Способность читать области Lead-in и Lead-out     : Нет
Заполнение пропущенных сэмплов тишиной            : Да
Удаление блоков с тишиной в начале и конце        : Нет
При вычислениях CRC использовались нулевые сэмплы : Да
Интерфейс                                         : Встроенный Win32-интерфейс для Win NT/2000
Выходной формат          : Пользовательский кодировщик
Выбранный битрейт        : 128 kBit/s
Качество                 : Высокий
Добавление ID3-тега      : Нет
Утилита сжатия           : C:\Program Files (x86)\FLAC\flac.exe
Дополнительные параметры : -V -8 -T "Date=%year%" -T "Genre=%genre%" %source%
TOC извлечённого CD
     Трек |   Старт  | Длительность | Начальный сектор | Конечный сектор
    ---------------------------------------------------------------------
       1  |  0:00.00 |    5:07.73   |           0      |      23097
       2  |  5:07.73 |    6:02.22   |       23098      |      50269
Характеристики диапазона извлечения и сообщения об ошибках
Выбранный диапазон
     Имя файла C:\EAC\Hocico - El Ultimo Minuto Antes De Que Tu Mundo Caiga - 2012 (Box Set, Limited Edition, 3CD)\CD3 - Prophecy Of Hate CDM\Hocico - Prophecy Of Hate.wav
     Пиковый уровень 100.0 %
     Скорость извлечения 2.1 X
     Качество диапазона 100.0 %
     CRC теста 353C9224
     CRC копии 353C9224
     Копирование... OK
Ошибок не произошло
AccurateRip: сводка
Трек  1  : извлечено точно (доверие 1)  [F0AA2A2E]  (AR v2)
Трек  2  : извлечено точно (доверие 1)  [6737C07C]  (AR v2)
Все треки извлечены точно
Конец отчёта
==== Контрольная сумма отчёта 93D31399C2FB08C22EA4F68A1A3932DEB351D60AB11BA51CF67A83F38B772826 ====
Код:
REM DATE 2012
REM DISCID A30CEA0B
REM COMMENT "ExactAudioCopy v1.0b3"
PERFORMER "Hocico"
TITLE "El Ultimo Minuto (Antes de tu Mundo Caiga)"
FILE "Hocico - El Ultimo Minuto (Antes de tu Mundo Caiga).flac" WAVE
  TRACK 01 AUDIO
    TITLE "T.O.S. Of Reality"
    PERFORMER "Hocico"
    INDEX 01 00:00:00
  TRACK 02 AUDIO
    TITLE " Intruder (Twin Version)"
    PERFORMER "Hocico"
    INDEX 01 05:13:20
  TRACK 03 AUDIO
    TITLE "The Watched"
    PERFORMER "Hocico"
    INDEX 00 09:52:56
    INDEX 01 09:52:57
  TRACK 04 AUDIO
    TITLE "Dead Trust"
    PERFORMER "Hocico"
    INDEX 00 15:25:21
    INDEX 01 15:28:24
  TRACK 05 AUDIO
    TITLE "Polarity"
    PERFORMER "Hocico"
    INDEX 00 21:04:39
    INDEX 01 21:04:45
  TRACK 06 AUDIO
    TITLE " Mundo Imposible"
    PERFORMER "Hocico"
    INDEX 01 24:40:29
  TRACK 07 AUDIO
    TITLE "Vile Whispers"
    PERFORMER "Hocico"
    INDEX 01 28:07:53
  TRACK 08 AUDIO
    TITLE "3...2...1..."
    PERFORMER "Hocico"
    INDEX 00 33:15:18
    INDEX 01 33:15:35
  TRACK 09 AUDIO
    TITLE "Toxic"
    PERFORMER "Hocico"
    INDEX 01 38:20:71
  TRACK 10 AUDIO
    TITLE "Over The Limit"
    PERFORMER "Hocico"
    INDEX 01 43:32:46
  TRACK 11 AUDIO
    TITLE "El Ultimo Minuto"
    PERFORMER "Hocico"
    INDEX 01 48:11:34
Код:
REM DISCID 42059005
REM COMMENT "ExactAudioCopy v1.0b3"
PERFORMER "Hocico"
TITLE "Bonus-CD El Ultimo Minuto (Antes de tu Mundo Caiga)"
FILE "Hocico - Bonus-CD El Ultimo Minuto (Antes de tu Mundo Caiga).flac" WAVE
  TRACK 01 AUDIO
    TITLE "Surfing In The Plastic Age"
    PERFORMER "Hocico"
    INDEX 01 00:00:00
  TRACK 02 AUDIO
    TITLE "Firewalking"
    PERFORMER "Hocico"
    INDEX 01 06:04:57
  TRACK 03 AUDIO
    TITLE " Intruder (SA42 Remix)"
    PERFORMER "Hocico"
    INDEX 00 10:47:26
    INDEX 01 10:47:41
  TRACK 04 AUDIO
    TITLE "Polarity (Mixed Bipolar Disorder By KiEw)"
    PERFORMER "Hocico"
    INDEX 01 16:06:14
  TRACK 05 AUDIO
    TITLE "Intruder (Tdtd Remix)"
    PERFORMER "Hocico"
    INDEX 00 20:20:32
    INDEX 01 20:20:36
Код:
REM DATE 2012
REM DISCID 0E029E02
REM COMMENT "ExactAudioCopy v1.0b3"
PERFORMER "Hocico"
TITLE "Prophecy Of Hate"
FILE "Hocico - Prophecy Of Hate.flac" WAVE
  TRACK 01 AUDIO
    TITLE "Prophecy Of Hate (Tape Track 1996)"
    PERFORMER "Hocico"
    INDEX 01 00:00:00
  TRACK 02 AUDIO
    TITLE "Deranged (Tape Track 1996)"
    PERFORMER "Hocico"
    INDEX 01 05:07:73
Правила, инструкции, FAQ!!!
Торрент  Добавлен [26 июн 2020, 21:12] Скачать торрент Магнет ссылка
Скачать торрент
[ Размер 14.36 КБ / Просмотров 9 ]

Статус
Проверен 
 
Размер  663.88 МБ
Приватный: Нет (DHT включён)
.torrent скачан  0
 


     Отправить личное сообщение
   
Страница 1 из 1
Показать сообщения за:  Поле сортировки  
Начать новую тему Ответить на тему


Сейчас этот форум просматривают: нет зарегистрированных пользователей и гости: 0


Вы не можете начинать темы
Вы не можете отвечать на сообщения
Вы не можете редактировать свои сообщения
Вы не можете удалять свои сообщения
Вы не можете добавлять вложения

Перейти:  
cron