Начать новую тему Ответить на тему
Статистика раздачи
Размер: 369.41 МБ | Добавлен: 26 июн 2020, 19:55 | Скачали: 0
Сидеров: 0  [0 байт/сек]    Личеров: 0  [0 байт/сек]
Пред. тема | След. тема 

Автор
Сообщение

СообщениеДобавлено: 26 июн 2020, 19:55 

Ответить с цитатой 

Hioctan - Headscan
Жанр: EBM, Industrial
Год выпуска диска: 2003
Производитель диска: Germany
Аудио кодек: FLAC
Тип рипа: tracks+.cue
Битрейт аудио: lossless
Продолжительность: 51:10
Источник: What.CD
Трэклист:
1.WYSIWYG (4:38)
2.One Man (4:31)
3.Mediagenic (4:42)
4.Shine One Me (4:41)
5.Torture (2:43)
6.Alone (4:16)
7.Euthanasia (4:43)
8.Bad Religion (4:04)
9.Headscan (4:34)
10.Dazzle (4:19)
11.Someone Somewhere (3:45)
12.Forceps Delivery (4:08)
Лучшая ваша благодарность за раздачу - отзывы об альбоме!
Код:
EAC extraction logfile from 12. February 2007, 19:16 for CD
Hioctan / Headscan
Used drive  : LITE-ON DVDRW LDW-811S   Adapter: 0  ID: 2
Read mode   : Secure with NO C2, accurate stream, disable cache
Read offset correction : 12
Overread into Lead-In and Lead-Out : No
Used output format : D:\Program Files\Exact Audio Copy\flac.exe   (User Defined Encoder)
                     128 kBit/s
                     Additional command line options : -V -8 -T "artist=%a" -T "title=%t" -T "album=%g" -T "date=%y" -T "tracknumber=%n" -T "genre=%m" %s
Other options      :
    Fill up missing offset samples with silence : Yes
    Delete leading and trailing silent blocks : No
    Installed external ASPI interface
Track  1
     Filename D:\Audio\Music\Hioctan - Headscan\01 - Hioctan - WYSIWYG.wav
     Pre-gap length  0:00:02.00
     Peak level 96.9 %
     Track quality 100.0 %
     Test CRC 7D204140
     Copy CRC 7D204140
     Copy OK
Track  2
     Filename D:\Audio\Music\Hioctan - Headscan\02 - Hioctan - One Man.wav
     Pre-gap length  0:00:02.00
     Peak level 95.9 %
     Track quality 100.0 %
     Test CRC C430579B
     Copy CRC C430579B
     Copy OK
Track  3
     Filename D:\Audio\Music\Hioctan - Headscan\03 - Hioctan - Mediagenic.wav
     Pre-gap length  0:00:02.00
     Peak level 97.7 %
     Track quality 100.0 %
     Test CRC 03FEDF28
     Copy CRC 03FEDF28
     Copy OK
Track  4
     Filename D:\Audio\Music\Hioctan - Headscan\04 - Hioctan - Shine One Me.wav
     Pre-gap length  0:00:02.00
     Peak level 91.5 %
     Track quality 100.0 %
     Test CRC 163BD2B4
     Copy CRC 163BD2B4
     Copy OK
Track  5
     Filename D:\Audio\Music\Hioctan - Headscan\05 - Hioctan - Torture.wav
     Pre-gap length  0:00:02.00
     Peak level 96.8 %
     Track quality 100.0 %
     Test CRC F449B71D
     Copy CRC F449B71D
     Copy OK
Track  6
     Filename D:\Audio\Music\Hioctan - Headscan\06 - Hioctan - Alone.wav
     Pre-gap length  0:00:02.00
     Peak level 96.8 %
     Track quality 100.0 %
     Test CRC E0806B24
     Copy CRC E0806B24
     Copy OK
Track  7
     Filename D:\Audio\Music\Hioctan - Headscan\07 - Hioctan - Euthanasia.wav
     Pre-gap length  0:00:02.00
     Peak level 89.5 %
     Track quality 100.0 %
     Test CRC 8D534D89
     Copy CRC 8D534D89
     Copy OK
Track  8
     Filename D:\Audio\Music\Hioctan - Headscan\08 - Hioctan - Bad Religion.wav
     Pre-gap length  0:00:02.00
     Peak level 91.6 %
     Track quality 99.9 %
     Test CRC 8E09E87F
     Copy CRC 8E09E87F
     Copy OK
Track  9
     Filename D:\Audio\Music\Hioctan - Headscan\09 - Hioctan - Headscan.wav
     Pre-gap length  0:00:02.00
     Peak level 95.9 %
     Track quality 99.9 %
     Test CRC 61EA33F3
     Copy CRC 61EA33F3
     Copy OK
Track 10
     Filename D:\Audio\Music\Hioctan - Headscan\10 - Hioctan - Dazzle.wav
     Pre-gap length  0:00:02.00
     Peak level 93.1 %
     Track quality 100.0 %
     Test CRC 041B9D79
     Copy CRC 041B9D79
     Copy OK
Track 11
     Filename D:\Audio\Music\Hioctan - Headscan\11 - Hioctan - Someone Somewhere.wav
     Pre-gap length  0:00:02.00
     Peak level 95.9 %
     Track quality 100.0 %
     Test CRC 78E90893
     Copy CRC 78E90893
     Copy OK
Track 12
     Filename D:\Audio\Music\Hioctan - Headscan\12 - Hioctan - Forceps Delivery.wav
     Pre-gap length  0:00:02.00
     Peak level 97.8 %
     Track quality 100.0 %
     Test CRC CDD8C0E1
     Copy CRC CDD8C0E1
     Copy OK
No errors occured
End of status report
Код:
REM GENRE EBM
REM DATE 2003
REM DISCID A90BFE0C
REM COMMENT "ExactAudioCopy v0.95b3"
PERFORMER "Hioctan"
TITLE "Headscan"
FILE "01 - Hioctan - WYSIWYG.wav" WAVE
  TRACK 01 AUDIO
    TITLE "WYSIWYG"
    PERFORMER "Hioctan"
    INDEX 01 00:00:00
  TRACK 02 AUDIO
    TITLE "One Man"
    PERFORMER "Hioctan"
    INDEX 00 04:36:48
FILE "02 - Hioctan - One Man.wav" WAVE
    INDEX 01 00:00:00
  TRACK 03 AUDIO
    TITLE "Mediagenic"
    PERFORMER "Hioctan"
    INDEX 00 04:29:56
FILE "03 - Hioctan - Mediagenic.wav" WAVE
    INDEX 01 00:00:00
  TRACK 04 AUDIO
    TITLE "Shine One Me"
    PERFORMER "Hioctan"
    INDEX 00 04:40:29
FILE "04 - Hioctan - Shine One Me.wav" WAVE
    INDEX 01 00:00:00
  TRACK 05 AUDIO
    TITLE "Torture"
    PERFORMER "Hioctan"
    INDEX 00 04:39:61
FILE "05 - Hioctan - Torture.wav" WAVE
    INDEX 01 00:00:00
  TRACK 06 AUDIO
    TITLE "Alone"
    PERFORMER "Hioctan"
    INDEX 00 02:41:24
FILE "06 - Hioctan - Alone.wav" WAVE
    INDEX 01 00:00:00
  TRACK 07 AUDIO
    TITLE "Euthanasia"
    PERFORMER "Hioctan"
    INDEX 00 04:14:14
FILE "07 - Hioctan - Euthanasia.wav" WAVE
    INDEX 01 00:00:00
  TRACK 08 AUDIO
    TITLE "Bad Religion"
    PERFORMER "Hioctan"
    INDEX 00 04:41:45
FILE "08 - Hioctan - Bad Religion.wav" WAVE
    INDEX 01 00:00:00
  TRACK 09 AUDIO
    TITLE "Headscan"
    PERFORMER "Hioctan"
    INDEX 00 04:02:54
FILE "09 - Hioctan - Headscan.wav" WAVE
    INDEX 01 00:00:00
  TRACK 10 AUDIO
    TITLE "Dazzle"
    PERFORMER "Hioctan"
    INDEX 00 04:32:43
FILE "10 - Hioctan - Dazzle.wav" WAVE
    INDEX 01 00:00:00
  TRACK 11 AUDIO
    TITLE "Someone Somewhere"
    PERFORMER "Hioctan"
    INDEX 00 04:17:70
FILE "11 - Hioctan - Someone Somewhere.wav" WAVE
    INDEX 01 00:00:00
  TRACK 12 AUDIO
    TITLE "Forceps Delivery"
    PERFORMER "Hioctan"
    INDEX 00 03:43:21
FILE "12 - Hioctan - Forceps Delivery.wav" WAVE
    INDEX 01 00:00:00


Hioctan была основана в 1999 в Ростоке Робертом Гейдрихом и Майклом Сенфтом, их не удовлетворяла современная музыкальная сцена. Они хотели объединить в себе два стиля - Dark Electro с EBM. После нескольких лет экспериментов, они разработали для себя особый стиль. В 2002 году один из основателей Роберт покинул проект, так что он должен рассматриваться как один человек-проект с того времени. На живых концертах, он будет поддержан другими музыкантами. Кроме того, в 2002 году, Hioctan подписывает контракт на запись с лейблом NoiTekk, когда дебютный альбом «Headscan» был опубликован во всем мире. Второй альбом «Concentration Overload» был опубликован в июне 2005 года.
Hioctan играет динамичную музыку, которая не соответствует любой линейной музыке, которая как раз ориентирована на танцевальные. Музыка живет. Песня создает, разрабатывает, а затем разрушается, только для того, чтобы создать еще раз с различными соглашениями. Барабаны и бас линии образуют симбиоз, несмотря на их сложность. Остальные элементы предназначены для блокировки и служить своей цели в целом.
HIOCTAN всегда были группой далекой от соответствия и социальных конвенций. «Under Control» является их третьей Пластинкой. Классические DarkElectro сочетание жестких звуков, искаженный вокал, а также хоры и литавр с меланхолично организовал строк завершиться в альбоме полны разъедают межчеловеческих чувств. Честная музыка для честных людей! «Под контролем» даже не пытаются идти в ногу с современными тенденциями - особенно аудио-Инжиниринг был введен в особое внимание, с тем чтобы создать звук более прозрачным, чем все HIOCTAN релизы когда-либо прежде. Тексты песен HIOCTAN всегда были очень критически к социальным вопросам. Трек «Цель жизни» касается всех людей, которые стараются жить вместе социальных конвенций, - связанными с правилами они вынуждены подчиниться - ожидание конца прийти в бесконечной спирали времени. «Страсть жестокости» осуждает преследование язычников - а «Sonderbehandlung 14f13» адреса геноцида во время Второй мировой войны. Дата выхода на NoiTekk и доступна 26 февраля 2010.
Источник
Правила, инструкции, FAQ!!!
Торрент  Добавлен [26 июн 2020, 19:55] Скачать торрент Магнет ссылка
Скачать торрент
[ Размер 15.7 КБ / Просмотров 5 ]

Статус
Проверен 
 
Размер  369.41 МБ
Приватный: Нет (DHT включён)
.torrent скачан  0
 


     Отправить личное сообщение
   
Страница 1 из 1
Показать сообщения за:  Поле сортировки  
Начать новую тему Ответить на тему


Сейчас этот форум просматривают: нет зарегистрированных пользователей и гости: 0


Вы не можете начинать темы
Вы не можете отвечать на сообщения
Вы не можете редактировать свои сообщения
Вы не можете удалять свои сообщения
Вы не можете добавлять вложения

Перейти:  
cron