Начать новую тему Ответить на тему
Статистика раздачи
Размер: 242.37 МБ | Добавлен: 26 июн 2020, 16:53 | Скачали: 0
Сидеров: 0  [0 байт/сек]    Личеров: 0  [0 байт/сек]
Пред. тема | След. тема 

Автор
Сообщение

СообщениеДобавлено: 26 июн 2020, 16:53 

Ответить с цитатой 

à;GRUMH... / We Are à;Grumh... And You Are Not!

Жанр: EBM, Industrial
Страна-производитель диска: US
Год издания диска: 1988
Издатель (лейбл): Play It Again Sam Records USA
Номер по каталогу: BIUSCD 1015
Аудио кодек: FLAC (*.flac)
Тип рипа: tracks+.cue
Битрейт аудио: lossless
Продолжительность: 00:39:40
Наличие сканов в содержимом раздачи: из discogs.com
Треклист:
01. In The Garden (03:53)
02. Hammam (05:42)
03. New Fashion (Edit) (03:20)
04. Another Brick In The Wall (Part II) (02:59)
05. Penser Et Agir (Est-ce Un Crime?) (02:50)
06. Kill (05:59)
07. Drama In The Subway (04:52)
08. Hapeople (04:16)
09. Generation (03:08)
10. Edito (02:46)
Код:
Exact Audio Copy V0.99 prebeta 4 from 23. January 2008
EAC extraction logfile from 8. May 2009, 19:34
а;GRUMH... / We are а;GRUMH... and you are not!
Used drive  : SONY    DVD RW DRU-710A   Adapter: 0  ID: 1
Read mode               : Secure
Utilize accurate stream : Yes
Defeat audio cache      : Yes
Make use of C2 pointers : No
Read offset correction                      : 12
Overread into Lead-In and Lead-Out          : No
Fill up missing offset samples with silence : Yes
Delete leading and trailing silent blocks   : No
Null samples used in CRC calculations       : Yes
Used interface                              : Native Win32 interface for Win NT & 2000
Gap handling                                : Appended to previous track
Used output format              : User Defined Encoder
Selected bitrate                : 128 kBit/s
Quality                         : High
Add ID3 tag                     : No
Command line compressor         : C:\Program Files\FLAC\flac.exe
Additional command line options : -V -8 -T "artist=%a" -T "title=%t" -T "album=%g" -T "date=%y" -T "tracknumber=%n" -T "genre=%m" %s
TOC of the extracted CD
     Track |   Start  |  Length  | Start sector | End sector
    ---------------------------------------------------------
        1  |  0:00.00 |  3:52.40 |         0    |    17439
        2  |  3:52.40 |  5:42.10 |     17440    |    43099
        3  |  9:34.50 |  3:19.60 |     43100    |    58084
        4  | 12:54.35 |  2:58.40 |     58085    |    71474
        5  | 15:53.00 |  2:49.72 |     71475    |    84221
        6  | 18:42.72 |  5:55.65 |     84222    |   110911
        7  | 24:38.62 |  4:52.08 |    110912    |   132819
        8  | 29:30.70 |  4:15.15 |    132820    |   151959
        9  | 33:46.10 |  3:08.12 |    151960    |   166071
       10  | 36:54.22 |  2:45.55 |    166072    |   178501
Track  1
     Filename E:\а;GRUMH... - We are а;GRUMH... and you are not!\01 - а;GRUMH... - In The Garden.wav
     Pre-gap length  0:00:02.00
     Peak level 84.7 %
     Track quality 100.0 %
     Test CRC D6962457
     Copy CRC D6962457
     Accurately ripped (confidence 2)  [B4C171C0]
     Copy OK
Track  2
     Filename E:\а;GRUMH... - We are а;GRUMH... and you are not!\02 - а;GRUMH... - Hammam.wav
     Pre-gap length  0:00:00.20
     Peak level 88.8 %
     Track quality 100.0 %
     Test CRC CBD577C0
     Copy CRC CBD577C0
     Accurately ripped (confidence 2)  [C12DC4C0]
     Copy OK
Track  3
     Filename E:\а;GRUMH... - We are а;GRUMH... and you are not!\03 - а;GRUMH... - New Fashion (edit).wav
     Pre-gap length  0:00:00.33
     Peak level 100.0 %
     Track quality 100.0 %
     Test CRC E972BAAE
     Copy CRC E972BAAE
     Accurately ripped (confidence 2)  [0277349B]
     Copy OK
Track  4
     Filename E:\а;GRUMH... - We are а;GRUMH... and you are not!\04 - а;GRUMH... - Another Brick In The Wall (Part II).wav
     Pre-gap length  0:00:00.13
     Peak level 84.2 %
     Track quality 100.0 %
     Test CRC 2FCD9678
     Copy CRC 2FCD9678
     Accurately ripped (confidence 2)  [43B1BB99]
     Copy OK
Track  5
     Filename E:\а;GRUMH... - We are а;GRUMH... and you are not!\05 - а;GRUMH... - Penser Et Agir (Est-cd un crime ).wav
     Pre-gap length  0:00:00.33
     Peak level 83.8 %
     Track quality 100.0 %
     Test CRC 660AE26D
     Copy CRC 660AE26D
     Accurately ripped (confidence 2)  [D40DC434]
     Copy OK
Track  6
     Filename E:\а;GRUMH... - We are а;GRUMH... and you are not!\06 - а;GRUMH... - Kill.wav
     Pre-gap length  0:00:00.29
     Peak level 95.1 %
     Track quality 100.0 %
     Test CRC 7F934704
     Copy CRC 7F934704
     Accurately ripped (confidence 2)  [6F7CD466]
     Copy OK
Track  7
     Filename E:\а;GRUMH... - We are а;GRUMH... and you are not!\07 - а;GRUMH... - Drama In The Subway.wav
     Pre-gap length  0:00:00.20
     Peak level 94.2 %
     Track quality 100.0 %
     Test CRC E2D16ED8
     Copy CRC E2D16ED8
     Accurately ripped (confidence 2)  [77FE2BCB]
     Copy OK
Track  8
     Filename E:\а;GRUMH... - We are а;GRUMH... and you are not!\08 - а;GRUMH... - Hapeople.wav
     Pre-gap length  0:00:00.10
     Peak level 93.4 %
     Track quality 100.0 %
     Test CRC 04E6EC45
     Copy CRC 04E6EC45
     Accurately ripped (confidence 2)  [D4DCFDB1]
     Copy OK
Track  9
     Filename E:\а;GRUMH... - We are а;GRUMH... and you are not!\09 - а;GRUMH... - Generation.wav
     Pre-gap length  0:00:00.13
     Peak level 99.6 %
     Track quality 100.0 %
     Test CRC B6A6CE26
     Copy CRC B6A6CE26
     Accurately ripped (confidence 2)  [4AE30C9A]
     Copy OK
Track 10
     Filename E:\а;GRUMH... - We are а;GRUMH... and you are not!\10 - а;GRUMH... - Edito.wav
     Pre-gap length  0:00:00.29
     Peak level 79.8 %
     Track quality 99.9 %
     Test CRC E52F157E
     Copy CRC E52F157E
     Accurately ripped (confidence 2)  [FAF50B4A]
     Copy OK
All tracks accurately ripped
No errors occurred
End of status report
Код:
REM GENRE "ebm, industrial"
REM DATE 1988
REM DISCID 81094C0A
REM COMMENT "ExactAudioCopy v0.99pb4"
PERFORMER "а;GRUMH..."
TITLE "We are а;GRUMH... and you are not!"
FILE "01 - а;GRUMH... - In The Garden.wav" WAVE
  TRACK 01 AUDIO
    TITLE "In The Garden"
    PERFORMER "а;GRUMH..."
    INDEX 01 00:00:00
  TRACK 02 AUDIO
    TITLE "Hammam"
    PERFORMER "а;GRUMH..."
    INDEX 00 03:52:25
FILE "02 - а;GRUMH... - Hammam.wav" WAVE
    INDEX 01 00:00:00
  TRACK 03 AUDIO
    TITLE "New Fashion (edit)"
    PERFORMER "а;GRUMH..."
    INDEX 00 05:41:60
FILE "03 - а;GRUMH... - New Fashion (edit).wav" WAVE
    INDEX 01 00:00:00
  TRACK 04 AUDIO
    TITLE "Another Brick In The Wall (Part II)"
    PERFORMER "а;GRUMH..."
    INDEX 00 03:19:50
FILE "04 - а;GRUMH... - Another Brick In The Wall (Part II).wav" WAVE
    INDEX 01 00:00:00
  TRACK 05 AUDIO
    TITLE "Penser Et Agir (Est-cd un crime?)"
    PERFORMER "а;GRUMH..."
    INDEX 00 02:58:15
FILE "05 - а;GRUMH... - Penser Et Agir (Est-cd un crime ).wav" WAVE
    INDEX 01 00:00:00
  TRACK 06 AUDIO
    TITLE "Kill"
    PERFORMER "а;GRUMH..."
    INDEX 00 02:49:50
FILE "06 - а;GRUMH... - Kill.wav" WAVE
    INDEX 01 00:00:00
  TRACK 07 AUDIO
    TITLE "Drama In The Subway"
    PERFORMER "а;GRUMH..."
    INDEX 00 05:55:50
FILE "07 - а;GRUMH... - Drama In The Subway.wav" WAVE
    INDEX 01 00:00:00
  TRACK 08 AUDIO
    TITLE "Hapeople"
    PERFORMER "а;GRUMH..."
    INDEX 00 04:52:00
FILE "08 - а;GRUMH... - Hapeople.wav" WAVE
    INDEX 01 00:00:00
  TRACK 09 AUDIO
    TITLE "Generation"
    PERFORMER "а;GRUMH..."
    INDEX 00 04:15:05
FILE "09 - а;GRUMH... - Generation.wav" WAVE
    INDEX 01 00:00:00
  TRACK 10 AUDIO
    TITLE "Edito"
    PERFORMER "а;GRUMH..."
    INDEX 00 03:07:65
FILE "10 - а;GRUMH... - Edito.wav" WAVE
    INDEX 01 00:00:00
Правила, инструкции, FAQ!!!
Торрент  Добавлен [26 июн 2020, 16:53] Скачать торрент Магнет ссылка
Скачать торрент
[ Размер 20.3 КБ / Просмотров 3 ]

Статус
Проверен 
 
Размер  242.37 МБ
Приватный: Нет (DHT включён)
.torrent скачан  0
 


     Отправить личное сообщение
   
Страница 1 из 1
Показать сообщения за:  Поле сортировки  
Начать новую тему Ответить на тему


Сейчас этот форум просматривают: нет зарегистрированных пользователей и гости: 0


Вы не можете начинать темы
Вы не можете отвечать на сообщения
Вы не можете редактировать свои сообщения
Вы не можете удалять свои сообщения
Вы не можете добавлять вложения

Перейти:  
cron