Начать новую тему Ответить на тему
Статистика раздачи
Размер: 435.69 МБ | Добавлен: 26 июн 2020, 16:59 | Скачали: 0
Сидеров: 0  [0 байт/сек]    Личеров: 0  [0 байт/сек]
Пред. тема | След. тема 

Автор
Сообщение

СообщениеДобавлено: 26 июн 2020, 16:59 

Ответить с цитатой 

The Gothsicles - Sega Lugosi's Dead

Жанр: EBM/Industrial/Gothic
Год выпуска диска: 2009
Производитель диска: United States of America (Chicago, Illinois)
Аудио кодек: FLAC
Тип рипа: tracks+.cue
Битрейт аудио: lossless
Продолжительность: 01:03:51
Релиз: iix (what.cd)
Список песен:
01. (03:48) INFL8-R
02. (04:09) Second Album Means It's Too Late to Change Your Band Name
03. (02:35) Amphibious Trigonometry
04. (03:42) Karma Jolt
05. (03:55) Anal Meat Ft.
06. (03:43) Eff the Sun
07. (04:10) BAAAAAAAAAAALLLLLLLLLLLS (Prometheus Burning vs. The Gothsicles)
08. (03:58) mindFluxFuneral owes me like $100
09. (04:03) Nine Dudes Freaking Out
10. (02:40) I Thought the CD Player Was Broken...But it was Just a Cyanotic Song (feat. Cyanotic)
11. (00:57) It Could Definitely at Least be Argued That the Whole Video Game Thing is Getting Kind of Old
12. (00:31) Sweet! Remixes!
13. (04:12) Nine Dudes Freaking Out (Nine Dudes Making Out remix by Alter Der Ruine)
14. (03:52) Eff The Sun (DEFCON Atomic Annihilation mix)
15. (04:47) Second Album Means It's Too Late To Change Your Band Name (Iszoloscope remix)
16. (03:23) Karma Jolt (System Syn remix)
17. (05:45) Nine Dudes Freaking Out (Repulsiveness Remix by Boole)
18. (02:09) Bonus Track
19. (01:35) Bonus Track 2
Состав группы:
darkNES (Brian Graupner) - Vocals/ Synthesizers
:EYG: (Kat Lunde) - Synthesizers
Sega Lugosi (Matt Fanale) - Vocals
Turbo Gothic 16 (Dan Clark) - Production/ Programming
Код:
Exact Audio Copy V0.99 prebeta 5 from 4. May 2009
EAC extraction logfile from 6. November 2009, 18:38
The Gothsicles / Sega Lugosi's Dead
Used drive  : HP      DVD Writer 1040r   Adapter: 2  ID: 1
Read mode               : Secure
Utilize accurate stream : Yes
Defeat audio cache      : Yes
Make use of C2 pointers : No
Read offset correction                      : 6
Overread into Lead-In and Lead-Out          : No
Fill up missing offset samples with silence : Yes
Delete leading and trailing silent blocks   : No
Null samples used in CRC calculations       : Yes
Used interface                              : Native Win32 interface for Win NT & 2000
Gap handling                                : Appended to previous track
Used output format              : User Defined Encoder
Selected bitrate                : 320 kBit/s
Quality                         : High
Add ID3 tag                     : No
Command line compressor         : C:\Program Files (x86)\Exact Audio Copy\Flac\flac.exe
Additional command line options : -V -8 -T "artist=%a" -T "title=%t" -T "album=%g" -T "date=%y" -T "tracknumber=%n" -T "genre=%m" %s
TOC of the extracted CD
     Track |   Start  |  Length  | Start sector | End sector
    ---------------------------------------------------------
        1  |  0:00.00 |  3:48.27 |         0    |    17126
        2  |  3:48.27 |  4:08.46 |     17127    |    35772
        3  |  7:56.73 |  2:34.55 |     35773    |    47377
        4  | 10:31.53 |  3:41.64 |     47378    |    64016
        5  | 14:13.42 |  3:55.16 |     64017    |    81657
        6  | 18:08.58 |  3:43.34 |     81658    |    98416
        7  | 21:52.17 |  4:10.04 |     98417    |   117170
        8  | 26:02.21 |  3:57.66 |    117171    |   135011
        9  | 30:00.12 |  4:02.59 |    135012    |   153220
       10  | 34:02.71 |  2:39.43 |    153221    |   165188
       11  | 36:42.39 |  0:57.16 |    165189    |   169479
       12  | 37:39.55 |  0:30.38 |    169480    |   171767
       13  | 38:10.18 |  4:11.51 |    171768    |   190643
       14  | 42:21.69 |  3:51.54 |    190644    |   208022
       15  | 46:13.48 |  4:46.48 |    208023    |   229520
       16  | 51:00.21 |  3:22.68 |    229521    |   244738
       17  | 54:23.14 |  5:44.72 |    244739    |   270610
       18  | 60:08.11 |  2:08.54 |    270611    |   280264
       19  | 62:16.65 |  1:34.63 |    280265    |   287377
Track  1
     Filename C:\EAC\The Gothsicles\The Gothsicles - 2009 - Sega Lugosi's Dead\01 - INFL8-R.wav
     Pre-gap length  0:00:02.00
     Peak level 100.0 %
     Track quality 100.0 %
     Test CRC BB968E63
     Copy CRC BB968E63
     Accurately ripped (confidence 1)  [7A1AE940]
     Copy OK
Track  2
     Filename C:\EAC\The Gothsicles\The Gothsicles - 2009 - Sega Lugosi's Dead\02 - Second Album Means It's Too Late to Change Your Band Name.wav
     Pre-gap length  0:00:02.00
     Peak level 100.0 %
     Track quality 100.0 %
     Test CRC 3EFFA8C7
     Copy CRC 3EFFA8C7
     Accurately ripped (confidence 1)  [92C482AF]
     Copy OK
Track  3
     Filename C:\EAC\The Gothsicles\The Gothsicles - 2009 - Sega Lugosi's Dead\03 - Amphibious Trigonometry.wav
     Pre-gap length  0:00:02.00
     Peak level 99.9 %
     Track quality 99.9 %
     Test CRC A51658A4
     Copy CRC A51658A4
     Accurately ripped (confidence 1)  [85FF0826]
     Copy OK
Track  4
     Filename C:\EAC\The Gothsicles\The Gothsicles - 2009 - Sega Lugosi's Dead\04 - Karma Jolt.wav
     Pre-gap length  0:00:02.00
     Peak level 100.0 %
     Track quality 100.0 %
     Test CRC B31D75CB
     Copy CRC B31D75CB
     Accurately ripped (confidence 1)  [9AF4A504]
     Copy OK
Track  5
     Filename C:\EAC\The Gothsicles\The Gothsicles - 2009 - Sega Lugosi's Dead\05 - Anal Meat Ft..wav
     Pre-gap length  0:00:02.00
     Peak level 100.0 %
     Track quality 100.0 %
     Test CRC B492C028
     Copy CRC B492C028
     Accurately ripped (confidence 1)  [E3A1C9F2]
     Copy OK
Track  6
     Filename C:\EAC\The Gothsicles\The Gothsicles - 2009 - Sega Lugosi's Dead\06 - Eff the Sun.wav
     Pre-gap length  0:00:02.00
     Peak level 100.0 %
     Track quality 100.0 %
     Test CRC C03B1837
     Copy CRC C03B1837
     Accurately ripped (confidence 1)  [E0DA3ACF]
     Copy OK
Track  7
     Filename C:\EAC\The Gothsicles\The Gothsicles - 2009 - Sega Lugosi's Dead\07 - BAAAAAAAAAAALLLLLLLLLLLS (Prometheus Burning vs. The Gothsicles).wav
     Pre-gap length  0:00:02.00
     Peak level 90.0 %
     Track quality 99.9 %
     Test CRC 7D83D486
     Copy CRC 7D83D486
     Accurately ripped (confidence 1)  [3CEEB6AD]
     Copy OK
Track  8
     Filename C:\EAC\The Gothsicles\The Gothsicles - 2009 - Sega Lugosi's Dead\08 - mindFluxFuneral owes me like $100.wav
     Pre-gap length  0:00:02.00
     Peak level 100.0 %
     Track quality 100.0 %
     Test CRC D3880D1B
     Copy CRC D3880D1B
     Accurately ripped (confidence 1)  [5DDDEAB6]
     Copy OK
Track  9
     Filename C:\EAC\The Gothsicles\The Gothsicles - 2009 - Sega Lugosi's Dead\09 - Nine Dudes Freaking Out.wav
     Pre-gap length  0:00:02.00
     Peak level 100.0 %
     Track quality 100.0 %
     Test CRC 1D1E395E
     Copy CRC 1D1E395E
     Accurately ripped (confidence 1)  [5FF265E8]
     Copy OK
Track 10
     Filename C:\EAC\The Gothsicles\The Gothsicles - 2009 - Sega Lugosi's Dead\10 - I Thought the CD Player Was Broken...But it was Just a Cyanotic Song (feat. Cyanotic).wav
     Pre-gap length  0:00:02.00
     Peak level 100.0 %
     Track quality 100.0 %
     Test CRC A2F67A52
     Copy CRC A2F67A52
     Accurately ripped (confidence 1)  [7292A071]
     Copy OK
Track 11
     Filename C:\EAC\The Gothsicles\The Gothsicles - 2009 - Sega Lugosi's Dead\11 - It Could Definitely at Least be Argued That the Whole Video Game Thing is Getting Kind of Old.wav
     Pre-gap length  0:00:02.00
     Peak level 100.0 %
     Track quality 100.0 %
     Test CRC A52C32C7
     Copy CRC A52C32C7
     Accurately ripped (confidence 1)  [146FBB06]
     Copy OK
Track 12
     Filename C:\EAC\The Gothsicles\The Gothsicles - 2009 - Sega Lugosi's Dead\12 - Sweet! Remixes!.wav
     Pre-gap length  0:00:02.00
     Peak level 100.0 %
     Track quality 100.0 %
     Test CRC 87C8B265
     Copy CRC 87C8B265
     Accurately ripped (confidence 1)  [9F0D870A]
     Copy OK
Track 13
     Filename C:\EAC\The Gothsicles\The Gothsicles - 2009 - Sega Lugosi's Dead\13 - Nine Dudes Freaking Out (Nine Dudes Making Out remix by Alter Der Ruine).wav
     Pre-gap length  0:00:02.00
     Peak level 100.0 %
     Track quality 99.9 %
     Test CRC 9CCAE861
     Copy CRC 9CCAE861
     Accurately ripped (confidence 1)  [2EAB1C33]
     Copy OK
Track 14
     Filename C:\EAC\The Gothsicles\The Gothsicles - 2009 - Sega Lugosi's Dead\14 - Eff The Sun (DEFCON Atomic Annihilation mix).wav
     Pre-gap length  0:00:02.00
     Peak level 100.0 %
     Track quality 100.0 %
     Test CRC 596342BF
     Copy CRC 596342BF
     Accurately ripped (confidence 1)  [D5E203D6]
     Copy OK
Track 15
     Filename C:\EAC\The Gothsicles\The Gothsicles - 2009 - Sega Lugosi's Dead\15 - Second Album Means It's Too Late To Change Your Band Name (Iszoloscope remix).wav
     Pre-gap length  0:00:02.00
     Peak level 100.0 %
     Track quality 100.0 %
     Test CRC 4C05A36C
     Copy CRC 4C05A36C
     Accurately ripped (confidence 1)  [714F40F8]
     Copy OK
Track 16
     Filename C:\EAC\The Gothsicles\The Gothsicles - 2009 - Sega Lugosi's Dead\16 - Karma Jolt (System Syn remix).wav
     Pre-gap length  0:00:02.00
     Peak level 100.0 %
     Track quality 100.0 %
     Test CRC 8EFC8475
     Copy CRC 8EFC8475
     Accurately ripped (confidence 1)  [3787737D]
     Copy OK
Track 17
     Filename C:\EAC\The Gothsicles\The Gothsicles - 2009 - Sega Lugosi's Dead\17 - Nine Dudes Freaking Out (Repulsiveness Remix by Boole).wav
     Pre-gap length  0:00:02.00
     Peak level 100.0 %
     Track quality 100.0 %
     Test CRC 6212E6EA
     Copy CRC 6212E6EA
     Accurately ripped (confidence 1)  [B8E7A12F]
     Copy OK
Track 18
     Filename C:\EAC\The Gothsicles\The Gothsicles - 2009 - Sega Lugosi's Dead\18 - Bonus Track.wav
     Pre-gap length  0:00:02.00
     Peak level 100.0 %
     Track quality 100.0 %
     Test CRC FA603142
     Copy CRC FA603142
     Accurately ripped (confidence 1)  [190D3DF6]
     Copy OK
Track 19
     Filename C:\EAC\The Gothsicles\The Gothsicles - 2009 - Sega Lugosi's Dead\19 - Bonus Track 2.wav
     Pre-gap length  0:00:02.00
     Peak level 100.0 %
     Track quality 100.0 %
     Test CRC 281FC20A
     Copy CRC 281FC20A
     Accurately ripped (confidence 1)  [C69710D9]
     Copy OK
All tracks accurately ripped
No errors occurred
End of status report

Цитата:
Цитата:
After the surprise hit of their debut, NESferatu, the duo of darkNES and :EYG: are back with even more EBM inspired carnage and their latest offering, Sega Lugosi s Dead. Inspired by everything from Dig-Dug to, well, balls (or rather BALLLLLLLS!!!), The Gothsicles leave no stupid stone unturned. Sega Lugosi s Dead combines their signature infectious bouncy hooks, offbeat sense of humor and love of all things geek, producing an album that surpasses their first. Sega Lugosi s Dead features guest appearances from Prometheus Burning, Cyanotic, The Dark Clan and unwittingly, Caustic. In addition to the album tracks, Sega Lugosi s Dead contains remixes from Alter der Ruine, System Syn, Iszoloscope, Boole, and DEFCON!
(c) amazon.com

Цитата:
Цитата:
"...these Chicago natives are well on their way to their own T.V. show, soft-drink licensing deal, and perhaps even a movie such as Kiss’s legendary 1978 film KISS MEETS THE PHANTOM OF THE PARK."
- Benny Hell, Fangoria Magazine
"One of the best albums I have ever heard."
Somatoxin
"Hot Pick For the Week"
Storming the Base
"Still hilarious, and still rocking, The Gothsicles are back at it again!"
DJ I.Z., Plastik Sickness
"It's utter genius in stupid form!"
Kate Turgoose, Connexion Bizarre
(c) myspace



Правила, инструкции, FAQ!!!
Торрент  Добавлен [26 июн 2020, 16:59] Скачать торрент Магнет ссылка
Скачать торрент
[ Размер 19.67 КБ / Просмотров 2 ]

Статус
Проверен 
 
Размер  435.69 МБ
Приватный: Нет (DHT включён)
.torrent скачан  0
 


     Отправить личное сообщение
   
Страница 1 из 1
Показать сообщения за:  Поле сортировки  
Начать новую тему Ответить на тему


Сейчас этот форум просматривают: нет зарегистрированных пользователей и гости: 0


Вы не можете начинать темы
Вы не можете отвечать на сообщения
Вы не можете редактировать свои сообщения
Вы не можете удалять свои сообщения
Вы не можете добавлять вложения

Перейти:  
cron