Начать новую тему Ответить на тему
Статистика раздачи
Размер: 526.83 МБ | Добавлен: 26 июн 2020, 17:51 | Скачали: 0
Сидеров: 0  [0 байт/сек]    Личеров: 0  [0 байт/сек]
Пред. тема | След. тема 

Автор
Сообщение

СообщениеДобавлено: 26 июн 2020, 17:51 

Ответить с цитатой 

Various ‎– Undercover Vol. II
Жанр: EBM, Industrial, Goth Rock, Synth-pop
Носитель: CD
Страна-производитель диска (релиза): Germany
Год издания: 1994
Издатель (лейбл): Sub Terranean
Номер по каталогу: SPV 084-38912
Аудиокодек: FLAC (*.flac)
Тип рипа: image+.cue
Продолжительность: 77:10
Источник: собственный рип
Наличие сканов в содержимом раздачи: нет
Треклист:
1 Slam -Rock'n'Roll 3:39
2 Heinrich Beats The Drum -51st State 2:28
3 Freaky Fukin Weirdoz -Hit Me With Your 4:09
4 Psyche -Sex Dwarf 5:52
5 Asylum -Children Of The Revolution 2:27
6 Peter Murphy -Final Solution 3:55
7 And Also The Trees -Lady D'Arbanville 4:22
8 Vampyre State Building -Bette Davis Eyes 3:37
9 Phantoms Of Future -This Flight Tonight 3:09
10 Les Berrtas -Und Es War Sommer 4:16
11 The Dry Halleys -Der Mussolini 3:52
12 Die Krupps -Enter Sandman 5:54
13 The Doors Project -Strange Days 3:12
14 Jordan Minnesota -Lola 3:05
15 Delay -Ricky's Hand 4:21
16 Der Prager Handgriff -Touch Me 3:05
17 Second Decay -Born To Be Alive 3:59
18 Laibach -Opus Dei (Life Is Life) 5:01
19 Billy Moffet's Playboy Club -Rasputin 3:50
20 Nick Cave -Something's Gotten Hold Of My Heart 3:43
Код:
Exact Audio Copy V1.3 from 2. September 2016
Отчёт EAC об извлечении, выполненном 16. сентября 2019, 11:40
- / -
Дисковод: HL-DT-STDVD+-RW GU90N   Adapter: 1  ID: 0
Режим чтения                 : Достоверность
Использование точного потока : Да
Отключение кэша аудио        : Да
Использование указателей C2  : Нет
Комбинированное смещение чтения/записи            : 0
Способность читать области Lead-in и Lead-out     : Да
Заполнение пропущенных сэмплов тишиной            : Да
Удаление блоков с тишиной в начале и конце        : Нет
При вычислениях CRC использовались нулевые сэмплы : Да
Интерфейс                                         : Встроенный Win32-интерфейс для Win NT/2000
Выходной формат : Внутренние WAV-операции
Формат сэмплов  : 44.100 Гц; 16 бит; стерео
TOC извлечённого CD
     Трек |   Старт  | Длительность | Начальный сектор | Конечный сектор
    ---------------------------------------------------------------------
       1  |  0:00.00 |    3:41.37   |           0      |      16611
       2  |  3:41.37 |    2:30.10   |       16612      |      27871
       3  |  6:11.47 |    4:11.45   |       27872      |      46741
       4  | 10:23.17 |    5:55.10   |       46742      |      73376
       5  | 16:18.27 |    2:29.10   |       73377      |      84561
       6  | 18:47.37 |    3:57.60   |       84562      |     102396
       7  | 22:45.22 |    4:24.15   |      102397      |     122211
       8  | 27:09.37 |    3:39.35   |      122212      |     138671
       9  | 30:48.72 |    3:11.18   |      138672      |     153014
      10  | 34:00.15 |    4:18.17   |      153015      |     172381
      11  | 38:18.32 |    3:54.65   |      172382      |     189996
      12  | 42:13.22 |    5:27.18   |      189997      |     214539
      13  | 47:40.40 |    3:14.25   |      214540      |     229114
      14  | 50:54.65 |    3:09.35   |      229115      |     243324
      15  | 54:04.25 |    4:22.32   |      243325      |     263006
      16  | 58:26.57 |    3:06.65   |      263007      |     277021
      17  | 61:33.47 |    4:01.48   |      277022      |     295144
      18  | 65:35.20 |    5:01.70   |      295145      |     317789
      19  | 70:37.15 |    3:51.47   |      317790      |     335161
      20  | 74:28.62 |    3:41.35   |      335162      |     351771
Характеристики диапазона извлечения и сообщения об ошибках
Выбранный диапазон
     Имя файла C:\Users\Zver\Downloads\Various Artist - Under Cover vol II\CDImage.wav
     Подозрительная позиция 1:18:10
     Пиковый уровень 99.2 %
     Скорость извлечения 4.8 X
     Качество диапазона 99.9 %
     CRC копии 716BD240
     Копирование завершено
Были ошибки
Конец отчёта
Код:
REM GENRE Alternative
REM DATE 1994
REM DISCID 15125214
REM COMMENT "ExactAudioCopy v1.3"
PERFORMER "Various"
TITLE "Undercover Vol. II"
FILE "Various - Undercover Vol. II.flac" WAVE
  TRACK 01 AUDIO
    TITLE "Slam - Rock 'N' Roll"
    PERFORMER "Various"
    INDEX 01 00:00:00
  TRACK 02 AUDIO
    TITLE "Heinrich Beats The Drum - 51st State"
    PERFORMER "Various"
    INDEX 00 03:39:35
    INDEX 01 03:41:37
  TRACK 03 AUDIO
    TITLE "Freaky Fukin Weirdoz - Hit me with your Rythm Stick"
    PERFORMER "Various"
    INDEX 00 06:10:00
    INDEX 01 06:11:47
  TRACK 04 AUDIO
    TITLE "Psyche - Sex Dwarf"
    PERFORMER "Various"
    INDEX 00 10:20:55
    INDEX 01 10:23:17
  TRACK 05 AUDIO
    TITLE "Asylum - Children Of The Revolution"
    PERFORMER "Various"
    INDEX 00 16:16:12
    INDEX 01 16:18:27
  TRACK 06 AUDIO
    TITLE "Peter Murphy - Final Solution"
    PERFORMER "Various"
    INDEX 00 18:45:47
    INDEX 01 18:47:37
  TRACK 07 AUDIO
    TITLE "And Also The Trees - Lady D'Arbanville"
    PERFORMER "Various"
    INDEX 00 22:42:50
    INDEX 01 22:45:22
  TRACK 08 AUDIO
    TITLE "Vampyre State Building - Bette Davis Eyes"
    PERFORMER "Various"
    INDEX 00 27:07:44
    INDEX 01 27:09:37
  TRACK 09 AUDIO
    TITLE "Phantoms Of Future - This Flight tonight"
    PERFORMER "Various"
    INDEX 00 30:47:10
    INDEX 01 30:48:72
  TRACK 10 AUDIO
    TITLE "Les Berrtas - Und es war Sommer"
    PERFORMER "Various"
    INDEX 00 33:58:07
    INDEX 01 34:00:15
  TRACK 11 AUDIO
    TITLE "The Dry Halleys - Der Mussolini"
    PERFORMER "Various"
    INDEX 00 38:16:60
    INDEX 01 38:18:32
  TRACK 12 AUDIO
    TITLE "Die Krupps - Enter Sandman"
    PERFORMER "Various"
    INDEX 00 42:10:72
    INDEX 01 42:13:22
  TRACK 13 AUDIO
    TITLE "The Doors Project - Strange Days"
    PERFORMER "Various"
    INDEX 00 47:37:37
    INDEX 01 47:40:40
  TRACK 14 AUDIO
    TITLE "Jordan Minnesota - Lola"
    PERFORMER "Various"
    INDEX 00 50:52:55
    INDEX 01 50:54:65
  TRACK 15 AUDIO
    TITLE "Delay - Ricky's Hand"
    PERFORMER "Various"
    INDEX 00 54:00:30
    INDEX 01 54:04:25
  TRACK 16 AUDIO
    TITLE "Der Prager Handgriff - Touch me"
    PERFORMER "Various"
    INDEX 01 58:26:57
  TRACK 17 AUDIO
    TITLE "Second Decay - Born to be alive"
    PERFORMER "Various"
    INDEX 01 61:33:47
  TRACK 18 AUDIO
    TITLE "Laibach - Opus Dei (Life is Life)"
    PERFORMER "Various"
    INDEX 01 65:35:20
  TRACK 19 AUDIO
    TITLE "Billy Moffet's Playboy Club - Rasputin"
    PERFORMER "Various"
    INDEX 01 70:37:15
  TRACK 20 AUDIO
    TITLE "Nick Cave - Something's gotten hold of my Heart"
    PERFORMER "Various"
    INDEX 01 74:28:62
Правила, инструкции, FAQ!!!
Торрент  Добавлен [26 июн 2020, 17:51] Скачать торрент Магнет ссылка
Скачать торрент
[ Размер 11.02 КБ / Просмотров 7 ]

Статус
Проверен 
 
Размер  526.83 МБ
Приватный: Нет (DHT включён)
.torrent скачан  0
 


     Отправить личное сообщение
   
Страница 1 из 1
Показать сообщения за:  Поле сортировки  
Начать новую тему Ответить на тему


Сейчас этот форум просматривают: нет зарегистрированных пользователей и гости: 0


Вы не можете начинать темы
Вы не можете отвечать на сообщения
Вы не можете редактировать свои сообщения
Вы не можете удалять свои сообщения
Вы не можете добавлять вложения

Перейти:  
cron