Начать новую тему Ответить на тему
Статистика раздачи
Размер: 464.65 МБ | Добавлен: 26 июн 2020, 17:51 | Скачали: 0
Сидеров: 0  [0 байт/сек]    Личеров: 0  [0 байт/сек]
Пред. тема | След. тема 

Автор
Сообщение

СообщениеДобавлено: 26 июн 2020, 17:51 

Ответить с цитатой 

Various ‎– Undercover Vol. I
Жанр: EBM, Industrial, Goth Rock, Synth-pop
Носитель: CD
Страна-производитель диска (релиза): Germany
Год издания: 1993
Издатель (лейбл): SPV Records
Номер по каталогу: SPV 084-38832
Аудиокодек: FLAC (*.flac)
Тип рипа: image+.cue
Продолжительность: 72:15
Источник: собственный рип
Наличие сканов в содержимом раздачи: нет
Треклист:
1 The Fall - Lost In Music 3:50
2 Prophet Of Haphazard -New Life 3:08
3 Plastic Noise Experience -Small Town Boy 3:39
4 Inspiral Carpets -Tainted Love 4:24
5 Wolfsheim -Ruby Don't Take Your Love To Town 3:07
6 Malaria -Lay Lady Lay 3:54
7 Love Like Blood -Heroes 3:24
8 Bigod 20 -Like A Prayer 3:59
9 Data Bank A -Radioactivity 5:02
10 Forthcoming Fire -Break On Through 3:44
11 Aurora -Hide And Seek 8:13
12 Moon -Sweet Dreams 4:12
13 Dark Orange -Sounds Of Silence 5:21
14 The Convent -Winning 3:28
15 Genital A-Tech -Bloody Sunday 4:44
16 The Frits -November Rain 5:40
Код:
Exact Audio Copy V1.3 from 2. September 2016
Отчёт EAC об извлечении, выполненном 16. сентября 2019, 10:10
Various Artists / Undercover vol I
Дисковод: HL-DT-STDVD+-RW GU90N   Adapter: 1  ID: 0
Режим чтения                 : Достоверность
Использование точного потока : Да
Отключение кэша аудио        : Да
Использование указателей C2  : Нет
Комбинированное смещение чтения/записи            : 0
Способность читать области Lead-in и Lead-out     : Да
Заполнение пропущенных сэмплов тишиной            : Да
Удаление блоков с тишиной в начале и конце        : Нет
При вычислениях CRC использовались нулевые сэмплы : Да
Интерфейс                                         : Встроенный Win32-интерфейс для Win NT/2000
Выходной формат : Внутренние WAV-операции
Формат сэмплов  : 44.100 Гц; 16 бит; стерео
TOC извлечённого CD
     Трек |   Старт  | Длительность | Начальный сектор | Конечный сектор
    ---------------------------------------------------------------------
       1  |  0:00.00 |    3:52.45   |           0      |      17444
       2  |  3:52.45 |    3:10.27   |       17445      |      31721
       3  |  7:02.72 |    3:40.55   |       31722      |      48276
       4  | 10:43.52 |    4:25.28   |       48277      |      68179
       5  | 15:09.05 |    3:09.40   |       68180      |      82394
       6  | 18:18.45 |    3:56.60   |       82395      |     100154
       7  | 22:15.30 |    3:25.27   |      100155      |     115556
       8  | 25:40.57 |    4:00.45   |      115557      |     133601
       9  | 29:41.27 |    5:02.35   |      133602      |     156286
      10  | 34:43.62 |    3:46.55   |      156287      |     173291
      11  | 38:30.42 |    8:15.00   |      173292      |     210416
      12  | 46:45.42 |    4:13.28   |      210417      |     229419
      13  | 50:58.70 |    5:22.32   |      229420      |     253601
      14  | 56:21.27 |    3:29.38   |      253602      |     269314
      15  | 59:50.65 |    4:45.22   |      269315      |     290711
      16  | 64:36.12 |    5:39.63   |      290712      |     316199
Характеристики диапазона извлечения и сообщения об ошибках
Выбранный диапазон
     Имя файла C:\Users\Zver\Downloads\Undercover vol I\Various Artists - Undercover vol I.wav
     Пиковый уровень 99.0 %
     Скорость извлечения 4.3 X
     Качество диапазона 100.0 %
     CRC копии 54F2CA0E
     Копирование... OK
Ошибок не произошло
Конец отчёта
---- CUETools DB Plugin V2.1.6
[CTDB TOCID: 2qON2eqR8niHFq33tKpg4v.Wovc-] found
Submit result: already submitted
Track | CTDB Status
  1   | (18/18) Accurately ripped
  2   | (18/18) Accurately ripped
  3   | (18/18) Accurately ripped
  4   | (18/18) Accurately ripped
  5   | (17/18) Accurately ripped
  6   | (18/18) Accurately ripped
  7   | (18/18) Accurately ripped
  8   | (18/18) Accurately ripped
  9   | (18/18) Accurately ripped
 10   | (18/18) Accurately ripped
 11   | (17/18) Accurately ripped
 12   | (18/18) Accurately ripped
 13   | (17/18) Accurately ripped
 14   | (18/18) Accurately ripped
 15   | (18/18) Accurately ripped
 16   | (18/18) Accurately ripped
Код:
REM GENRE Industrial
REM DATE 1993
REM DISCID CD107810
REM COMMENT "ExactAudioCopy v1.3"
PERFORMER "Various Artists"
TITLE "Undercover vol I"
REM COMPOSER ""
FILE "Various Artists - Undercover vol I.flac" WAVE
  TRACK 01 AUDIO
    TITLE "The Fall-Lost In Music"
    PERFORMER "Various Artists"
    REM COMPOSER ""
    INDEX 01 00:00:00
  TRACK 02 AUDIO
    TITLE "Prophet Of Haphazard-New Life"
    PERFORMER "Various Artists"
    REM COMPOSER ""
    INDEX 00 03:50:60
    INDEX 01 03:52:45
  TRACK 03 AUDIO
    TITLE "Plastic Noise Experience-Small Town Boy"
    PERFORMER "Various Artists"
    REM COMPOSER ""
    INDEX 00 07:01:17
    INDEX 01 07:02:72
  TRACK 04 AUDIO
    TITLE "Inspiral Carpets-Tainted Love"
    PERFORMER "Various Artists"
    REM COMPOSER ""
    INDEX 00 10:42:22
    INDEX 01 10:43:52
  TRACK 05 AUDIO
    TITLE "Wolfsheim-Ruby Don'tTake Your Love To Town"
    PERFORMER "Various Artists"
    REM COMPOSER ""
    INDEX 00 15:07:62
    INDEX 01 15:09:05
  TRACK 06 AUDIO
    TITLE "Malaria-Lay Lady Lay"
    PERFORMER "Various Artists"
    REM COMPOSER ""
    INDEX 00 18:16:22
    INDEX 01 18:18:45
  TRACK 07 AUDIO
    TITLE "Love Like Blood- Heroes"
    PERFORMER "Various Artists"
    REM COMPOSER ""
    INDEX 00 22:13:05
    INDEX 01 22:15:30
  TRACK 08 AUDIO
    TITLE "Bigod 20-Like A Prayer"
    PERFORMER "Various Artists"
    REM COMPOSER ""
    INDEX 00 25:39:12
    INDEX 01 25:40:57
  TRACK 09 AUDIO
    TITLE "Data Bank A-Radioactivity"
    PERFORMER "Various Artists"
    REM COMPOSER ""
    INDEX 00 29:40:22
    INDEX 01 29:41:27
  TRACK 10 AUDIO
    TITLE "Forthcoming Fire-Break On Through"
    PERFORMER "Various Artists"
    REM COMPOSER ""
    INDEX 00 34:43:07
    INDEX 01 34:43:62
  TRACK 11 AUDIO
    TITLE "Aurora-Hide And Seek"
    PERFORMER "Various Artists"
    REM COMPOSER ""
    INDEX 00 38:28:15
    INDEX 01 38:30:42
  TRACK 12 AUDIO
    TITLE "Moon-Sweet Dreams"
    PERFORMER "Various Artists"
    REM COMPOSER ""
    INDEX 00 46:43:47
    INDEX 01 46:45:42
  TRACK 13 AUDIO
    TITLE "Dark Orange-Sounds Of Silence"
    PERFORMER "Various Artists"
    REM COMPOSER ""
    INDEX 00 50:57:65
    INDEX 01 50:58:70
  TRACK 14 AUDIO
    TITLE "The Convent-Winning"
    PERFORMER "Various Artists"
    REM COMPOSER ""
    INDEX 00 56:19:62
    INDEX 01 56:21:27
  TRACK 15 AUDIO
    TITLE "Genital A-Tech- Bloody Sunday"
    PERFORMER "Various Artists"
    REM COMPOSER ""
    INDEX 00 59:49:32
    INDEX 01 59:50:65
  TRACK 16 AUDIO
    TITLE "The Frits-November Rain"
    PERFORMER "Various Artists"
    REM COMPOSER ""
    INDEX 01 64:36:12
Правила, инструкции, FAQ!!!
Торрент  Добавлен [26 июн 2020, 17:51] Скачать торрент Магнет ссылка
Скачать торрент
[ Размер 18.91 КБ / Просмотров 9 ]

Статус
Проверен 
 
Размер  464.65 МБ
Приватный: Нет (DHT включён)
.torrent скачан  0
 


     Отправить личное сообщение
   
Страница 1 из 1
Показать сообщения за:  Поле сортировки  
Начать новую тему Ответить на тему


Сейчас этот форум просматривают: нет зарегистрированных пользователей и гости: 0


Вы не можете начинать темы
Вы не можете отвечать на сообщения
Вы не можете редактировать свои сообщения
Вы не можете удалять свои сообщения
Вы не можете добавлять вложения

Перейти:  
cron