Начать новую тему Ответить на тему
Статистика раздачи
Размер: 423.9 МБ | Добавлен: 26 июн 2020, 16:55 | Скачали: 0
Сидеров: 0  [0 байт/сек]    Личеров: 0  [0 байт/сек]
Пред. тема | След. тема 

Автор
Сообщение

СообщениеДобавлено: 26 июн 2020, 16:55 

Ответить с цитатой 

Jesus And The Gurus / Satan's Little Helpers
Жанр: EBM, Industrial, Goth Rock
Страна-производитель диска: Germany
Год издания диска: 2005
Издатель (лейбл): Fear Section
Номер по каталогу: Fear 018
Страна: Germany
Аудио кодек: FLAC (*.flac)
Тип рипа: image+.cue
Битрейт аудио: lossless
Продолжительность: 1:02:30
Источник (релизер): Физический носитель
Наличие сканов в содержимом раздачи: нет
Треклист:
1. Bingo III
2. So fucking special (rmx by Cephalgy)
3. Glowing sun (rmx by Tumor)
4. Simulator (rmx Das Ich)
5. What will perish (rmx by Feindflug)
6. Crashtest dummy (Crah club rmxby P.A.L.)
7. Die today (rmx by Krnakenzimmer 204)
8. 2000 years (rmx by Saalschutz)
9. Hey guys, hey girls (rmx by Noisex)
10. Promise me your blood (rmx byLost Area)
11. Glowing sun (rmx by der Eremit)
12. Life is near (Taurin mix by Metallspuerhunde)
13. Hey guys, hey girls (Devils kiss rmx by Blutengel)
14. Planet (Not from this planet mix by Supreme Court)
15. Bingo IV
Код:
Exact Audio Copy V0.99 prebeta 5 from 4. May 2009
Отчёт EAC об извлечении, выполненном 3. октября 2010, 21:48
Jesus And The Gurus / Satan's Little Helpers
Дисковод: TSSTcorpCDDVDW SH-S203D   Adapter: 2  ID: 1
Режим чтения                 : Достоверность
Использование точного потока : Да
Отключение кэша аудио        : Да
Использование указателей C2  : Нет
Коррекция смещения при чтении                     : 48
Способность читать области Lead-in и Lead-out     : Нет
Заполнение пропущенных сэмплов тишиной            : Да
Удаление блоков с тишиной в начале и конце        : Нет
При вычислениях CRC использовались нулевые сэмплы : Да
Интерфейс                                         : Встроенный Win32-интерфейс для Win NT/2000
Выходной формат : Внутренние WAV-операции
Формат сэмплов  : 44.100 Гц; 16 бит; стерео
TOC извлечённого CD
     Трек |   Старт  | Длительность | Начальный сектор | Конечный сектор
    ---------------------------------------------------------------------
       1  |  0:00.00 |    0:46.70   |           0      |       3519
       2  |  0:46.70 |    4:07.13   |        3520      |      22057
       3  |  4:54.08 |    5:09.00   |       22058      |      45232
       4  | 10:03.08 |    3:56.17   |       45233      |      62949
       5  | 13:59.25 |    4:35.44   |       62950      |      83618
       6  | 18:34.69 |    5:02.67   |       83619      |     106335
       7  | 23:37.61 |    4:23.29   |      106336      |     126089
       8  | 28:01.15 |    3:29.22   |      126090      |     141786
       9  | 31:30.37 |    5:28.02   |      141787      |     166388
      10  | 36:58.39 |    4:05.09   |      166389      |     184772
      11  | 41:03.48 |    5:20.43   |      184773      |     208815
      12  | 46:24.16 |    4:14.65   |      208816      |     227930
      13  | 50:39.06 |    5:53.37   |      227931      |     254442
      14  | 56:32.43 |    5:26.27   |      254443      |     278919
      15  | 61:58.70 |    0:31.30   |      278920      |     281274
      16  | 65:02.25 |    7:18.34   |      292675      |     325558
Характеристики диапазона извлечения и сообщения об ошибках
Выбранный диапазон
     Имя файла D:\OBRAZ\JESUS AND THE GURUS\Jesus And The Gurus - Satan's Little Helpers.wav
     Пиковый уровень 97.7 %
     Качество диапазона 99.9 %
     CRC копии 96C561AB
     Копирование... OK
Ошибок не произошло
Конец отчёта
------------------------------------------------------------
Exact Audio Copy V0.99 prebeta 5 from 4. May 2009
Отчёт EAC об извлечении, выполненном 3. октября 2010, 21:48
Jesus And The Gurus / Satanґs Little Helpers
Дисковод: TSSTcorpCDDVDW SH-S203D   Adapter: 2  ID: 1
Режим чтения                 : Достоверность
Использование точного потока : Да
Отключение кэша аудио        : Да
Использование указателей C2  : Нет
Коррекция смещения при чтении                     : 48
Способность читать области Lead-in и Lead-out     : Нет
Заполнение пропущенных сэмплов тишиной            : Да
Удаление блоков с тишиной в начале и конце        : Нет
При вычислениях CRC использовались нулевые сэмплы : Нет
Интерфейс                                         : Встроенный Win32-интерфейс для Win NT/2000
Выходной формат : Внутренние WAV-операции
Формат сэмплов  : 44.100 Гц; 16 бит; стерео
TOC извлечённого CD
     Трек |   Старт  | Длительность | Начальный сектор | Конечный сектор
    ---------------------------------------------------------------------
       1  |  0:00.00 |    0:46.70   |           0      |       3519
       2  |  0:46.70 |    4:07.13   |        3520      |      22057
       3  |  4:54.08 |    5:09.00   |       22058      |      45232
       4  | 10:03.08 |    3:56.17   |       45233      |      62949
       5  | 13:59.25 |    4:35.44   |       62950      |      83618
       6  | 18:34.69 |    5:02.67   |       83619      |     106335
       7  | 23:37.61 |    4:23.29   |      106336      |     126089
       8  | 28:01.15 |    3:29.22   |      126090      |     141786
       9  | 31:30.37 |    5:28.02   |      141787      |     166388
      10  | 36:58.39 |    4:05.09   |      166389      |     184772
      11  | 41:03.48 |    5:20.43   |      184773      |     208815
      12  | 46:24.16 |    4:14.65   |      208816      |     227930
      13  | 50:39.06 |    5:53.37   |      227931      |     254442
      14  | 56:32.43 |    5:26.27   |      254443      |     278919
      15  | 61:58.70 |    0:31.30   |      278920      |     281274
      16  | 65:02.25 |    7:18.34   |      292675      |     325558
Характеристики диапазона извлечения и сообщения об ошибках
Выбранный диапазон
     Имя файла D:\OBRAZ\JESUS AND THE GURUS\Jesus And The Gurus - Satan's Little Helpers.wav
     Пиковый уровень 97.7 %
     Качество диапазона 99.9 %
     CRC копии 96C561AB
     Копирование... OK
Ошибок не произошло
Конец отчёта
Код:
REM GENRE Darkwave
REM DATE 2005
REM DISCID DA10F410
REM COMMENT "ExactAudioCopy v0.99pb5"
PERFORMER "Jesus And The Gurus"
TITLE "Satan's Little Helpers"
FILE "Jesus And The Gurus - Satan's Little Helpers.wav" WAVE
  TRACK 01 AUDIO
    TITLE "Bingo III."
    PERFORMER "Jesus And The Gurus"
    FLAGS DCP
    INDEX 01 00:00:00
  TRACK 02 AUDIO
    TITLE "So Fucking Spezial (RMX by Cephalgy)"
    PERFORMER "Jesus And The Gurus"
    FLAGS DCP
    INDEX 01 00:46:70
  TRACK 03 AUDIO
    TITLE "Glowing Sun (RMX by Tumor)"
    PERFORMER "Jesus And The Gurus"
    FLAGS DCP
    INDEX 01 04:54:08
  TRACK 04 AUDIO
    TITLE "Simulator (RMX by Das Ich)"
    PERFORMER "Jesus And The Gurus"
    FLAGS DCP
    INDEX 01 10:03:08
  TRACK 05 AUDIO
    TITLE "What Will Perish (RMX by Feindflug)"
    PERFORMER "Jesus And The Gurus"
    FLAGS DCP
    INDEX 01 13:59:25
  TRACK 06 AUDIO
    TITLE "Crashtest Dummy (Crash Club RMX by P.A.L.)"
    PERFORMER "Jesus And The Gurus"
    FLAGS DCP
    INDEX 01 18:34:69
  TRACK 07 AUDIO
    TITLE "Die Today (RMX by Krankenzimmer 204)"
    PERFORMER "Jesus And The Gurus"
    FLAGS DCP
    INDEX 01 23:37:61
  TRACK 08 AUDIO
    TITLE "2000 Years (RMX by Saalschutz)"
    PERFORMER "Jesus And The Gurus"
    FLAGS DCP
    INDEX 01 28:01:15
  TRACK 09 AUDIO
    TITLE "Hey Guys, Hey Girls (RMX by Noisex)"
    PERFORMER "Jesus And The Gurus"
    FLAGS DCP
    INDEX 01 31:30:37
  TRACK 10 AUDIO
    TITLE "Promise Me Your Blood (RMX by Lost Area)"
    PERFORMER "Jesus And The Gurus"
    FLAGS DCP
    INDEX 01 36:58:39
  TRACK 11 AUDIO
    TITLE "Glowing Sun (RMX by Der Eremit)"
    PERFORMER "Jesus And The Gurus"
    FLAGS DCP
    INDEX 01 41:03:48
  TRACK 12 AUDIO
    TITLE "Life Is Near (Taurin Mix by Metallspьrhunde)"
    PERFORMER "Jesus And The Gurus"
    FLAGS DCP
    INDEX 01 46:24:16
  TRACK 13 AUDIO
    TITLE "Hey Guys, Hey Girls (Devils Kiss RMX by Blutengel)"
    PERFORMER "Jesus And The Gurus"
    FLAGS DCP
    INDEX 01 50:39:06
  TRACK 14 AUDIO
    TITLE "Planet (Not From This Planet Mix by Supreme Court)"
    PERFORMER "Jesus And The Gurus"
    FLAGS DCP
    INDEX 01 56:32:43
  TRACK 15 AUDIO
    TITLE "Bingo IV."
    PERFORMER "Jesus And The Gurus"
    FLAGS DCP
    INDEX 01 61:58:70
Код:
Started at: четверг, 07. 10. 2010. - 22:18.59
1 file found
1 -===- G:\JESUS AND THE GURUS\Jesus And The Gurus - Satan's Little Helpers.wav
  Conclusion: this track is CDDA with probability 100%
Finished at: четверг, 07. 10. 2010. - 22:28.30 (operation time: 0:09.31)
Правила, инструкции, FAQ!!!
Торрент  Добавлен [26 июн 2020, 16:55] Скачать торрент Магнет ссылка
Скачать торрент
[ Размер 17.23 КБ / Просмотров 4 ]

Статус
Проверен 
 
Размер  423.9 МБ
Приватный: Нет (DHT включён)
.torrent скачан  0
 


     Отправить личное сообщение
   
Страница 1 из 1
Показать сообщения за:  Поле сортировки  
Начать новую тему Ответить на тему


Сейчас этот форум просматривают: нет зарегистрированных пользователей и гости: 0


Вы не можете начинать темы
Вы не можете отвечать на сообщения
Вы не можете редактировать свои сообщения
Вы не можете удалять свои сообщения
Вы не можете добавлять вложения

Перейти:  
cron