Начать новую тему Ответить на тему
Статистика раздачи
Размер: 389.69 МБ | Добавлен: 26 июн 2020, 16:55 | Скачали: 0
Сидеров: 0  [0 байт/сек]    Личеров: 0  [0 байт/сек]
Пред. тема | След. тема 

Автор
Сообщение

СообщениеДобавлено: 26 июн 2020, 16:55 

Ответить с цитатой 

Relwork - Impulse
Жанр: EBM, Industrial, Futurepop
Год выпуска диска: 2001
Производитель диска: Германия
Аудио кодек: FLAC
Тип рипа: image+.cue
Битрейт аудио: lossless
Продолжительность: 55:20.59
Трэклист:
01. Intro
02. The Sun
03. From Mind
04. Civilization
05. Pulse
06. Inside You
07. Horizon Approaching
08. Lava
09. Neophyte
10. Solid Nation
11. To Our Remains
Exact Audio Copy V0.99 prebeta 4 from 23. January 2008
Отчёт EAC об извлечении, выполненном 4. сентября 2008, 21:28
Re|work / Impulse
Дисковод: PIONEER DVD-RW DVR-111D Adapter: 0 ID: 0
Режим чтения : Достоверность
Использование точного потока : Да
Отключение кэша аудио : Да
Использование указателей C2 : Нет
Коррекция смещения при чтении : 48
Способность читать области Lead-in и Lead-out : Нет
Заполнение пропущенных сэмплов тишиной : Да
Удаление блоков с тишиной в начале и конце : Нет
При вычислениях CRC использовались нулевые сэмплы : Да
Интерфейс : Встроенный Win32-интерфейс для Win NT/2000
Выходной формат : Пользовательский кодировщик
Выбранный битрейт : 1024 kBit/s
Качество : Высокий
Добавление ID3-тэга : Нет
Утилита сжатия : C:\Program Files\Exact Audio Copy\FLAC\FLAC.EXE
Дополнительные параметры : -8 -V -T "ARTIST=%a" -T "TITLE=%t" -T "ALBUM=%g" -T "DATE=%y" -T "TRACKNUMBER=%n" -T "GENRE=%m" -T "COMMENT=%e" %s -o %d
TOC извлечённого CD
Трек | Старт | Длительность | Начальный сектор | Конечный сектор
---------------------------------------------------------------------
1 | 0:00.00 | 4:03.52 | 0 | 18276
2 | 4:03.52 | 5:28.57 | 18277 | 42933
3 | 9:32.34 | 3:56.17 | 42934 | 60650
4 | 13:28.51 | 6:09.38 | 60651 | 88363
5 | 19:38.14 | 8:28.53 | 88364 | 126516
6 | 28:06.67 | 4:38.67 | 126517 | 147433
7 | 32:45.59 | 5:41.21 | 147434 | 173029
8 | 38:27.05 | 5:21.24 | 173030 | 197128
9 | 43:48.29 | 5:41.67 | 197129 | 222770
10 | 49:30.21 | 5:50.38 | 222771 | 249058
11 | 55:20.59 | 4:45.47 | 249059 | 270480
Характеристики диапазона извлечения и сообщения об ошибках
Выбранный диапазон
Имя файла D:\123\t\Relwork - Impulse [2001]\Relwork - Impulse.wav
Пиковый уровень 100.0 %
Качество диапазона 100.0 %
CRC теста C1BB13F1
CRC копии C1BB13F1
Копирование... OK
Ошибок не произошло
AccurateRip: сводка
Трек 1 нет в базе данных
Трек 2 нет в базе данных
Трек 3 нет в базе данных
Трек 4 нет в базе данных
Трек 5 нет в базе данных
Трек 6 нет в базе данных
Трек 7 нет в базе данных
Трек 8 нет в базе данных
Трек 9 нет в базе данных
Трек 10 нет в базе данных
Трек 11 нет в базе данных
Ни одного трека нет в базе AccurateRip
Конец отчёта
AUDIOCHECKER v2.0 beta (build 457) - by Dester - opdester@freemail.hu
~~~~~~~~~~~~~~~~~~~~~~~~~~~~~~~~~~
-=== DO NOT EDIT THIS FILE! ===-
Path: ...\Relwork - Impulse [2001]
1 -=- Relwork - Impulse.flac -=- CDDA (100%)
157321492
Доп. информация: Новая группа из Германии, своим открытием обязанная главному “функеру” Gerrit Thomas и записавшая под его чутким присмотром встудии Lager II первый альбом, имеет большие шансы понравиться поклонникам мощного и жесткого, модернового танцевального ЕВМ с мужскими вокалами. Все композиции RE/WORK по звучанию очень похожи на самые танцевальные и тяжелые треки поздних LIGHTS OF EUPHORIA (вокалы вообще идентичны), а также штурмовые боевики FUNKER VOGT.
Информация взята с http://www.machinistmusic.net/reviews/reworkcd2001.html
Правила, инструкции, FAQ!!!
Торрент  Добавлен [26 июн 2020, 16:55] Скачать торрент Магнет ссылка
Скачать торрент
[ Размер 15.87 КБ / Просмотров 4 ]

Статус
Проверен 
 
Размер  389.69 МБ
Приватный: Нет (DHT включён)
.torrent скачан  0
 


     Отправить личное сообщение
   
Страница 1 из 1
Показать сообщения за:  Поле сортировки  
Начать новую тему Ответить на тему


Сейчас этот форум просматривают: нет зарегистрированных пользователей и гости: 0


Вы не можете начинать темы
Вы не можете отвечать на сообщения
Вы не можете редактировать свои сообщения
Вы не можете удалять свои сообщения
Вы не можете добавлять вложения

Перейти:  
cron