Начать новую тему Ответить на тему
Статистика раздачи
Размер: 159.11 МБ | Добавлен: 26 июн 2020, 19:47 | Скачали: 0
Сидеров: 0  [0 байт/сек]    Личеров: 0  [0 байт/сек]
Пред. тема | След. тема 

Автор
Сообщение

СообщениеДобавлено: 26 июн 2020, 19:47 

Ответить с цитатой 

Funker Vogt / Hard Way [Single, Limited Edition]
Жанр: EBM, Industrial
Страна-производитель диска: Germany
Год издания: 2012
Издатель (лейбл): Out Of Line
Номер по каталогу: OUT 545
Страна: Germany
Аудиокодек: FLAC (*.flac)
Тип рипа: image+.cue
Битрейт аудио: lossless
Продолжительность: 00:21:36
Источник (релизер): Личный СД
Наличие сканов в содержимом раздачи: да
Треклист:
1. Hard Way 4:16
2. Hard Way (Ta Box Mix) 4:40
3. Fabrik 3:25
4. Hard Way (No Rules Mix) 6:00
5. Fabrik (Mit Schwung An Die Arbeit Cover-Version Interpretiert Von Jäger 90) 3:05
Код:
Exact Audio Copy V1.0 beta 3 from 29. August 2011
Отчёт EAC об извлечении, выполненном 26. ноября 2012, 16:01
Funker Vogt / Hard Way
Дисковод: PIONEER BD-RW   BDR-207D   Adapter: 2  ID: 1
Режим чтения                 : Достоверность
Использование точного потока : Да
Отключение кэша аудио        : Да
Использование указателей C2  : Нет
Коррекция смещения при чтении                     : 667
Способность читать области Lead-in и Lead-out     : Нет
Заполнение пропущенных сэмплов тишиной            : Да
Удаление блоков с тишиной в начале и конце        : Нет
При вычислениях CRC использовались нулевые сэмплы : Да
Интерфейс                                         : Встроенный Win32-интерфейс для Win NT/2000
Выходной формат          : Пользовательский кодировщик
Выбранный битрейт        : 1024 kBit/s
Качество                 : Высокий
Добавление ID3-тега      : Нет
Утилита сжатия           : C:\Program Files\Exact Audio Copy\Flac\flac.exe
Дополнительные параметры : -V -8 -T "Date=%year%" -T "Genre=%genre%" %source%
TOC извлечённого CD
     Трек |   Старт  | Длительность | Начальный сектор | Конечный сектор
    ---------------------------------------------------------------------
       1  |  0:00.00 |    4:18.00   |           0      |      19349
       2  |  4:18.00 |    4:42.52   |       19350      |      40551
       3  |  9:00.52 |    3:27.14   |       40552      |      56090
       4  | 12:27.66 |    6:02.53   |       56091      |      83293
       5  | 18:30.44 |    3:05.35   |       83294      |      97203
Характеристики диапазона извлечения и сообщения об ошибках
Выбранный диапазон
     Имя файла M:\Раздачи Rodexx\Funker Vogt ‎– Hard Way\Funker Vogt - Hard Way.wav
     Пиковый уровень 100.0 %
     Скорость извлечения 5.8 X
     Качество диапазона 100.0 %
     CRC теста BA71CCBF
     CRC копии BA71CCBF
     Копирование... OK
Ошибок не произошло
AccurateRip: сводка
Трек  1  отсутствует в базе данных
Трек  2  отсутствует в базе данных
Трек  3  отсутствует в базе данных
Трек  4  отсутствует в базе данных
Трек  5  отсутствует в базе данных
Ни одного трека нет в базе AccurateRip
Конец отчёта
==== Контрольная сумма отчёта EEA64381970C31D3C66D74CF69FB4A856F90C941A26A5E587506D82E3B21839E ====
Правила, инструкции, FAQ!!!
Торрент  Добавлен [26 июн 2020, 19:47] Скачать торрент Магнет ссылка
Скачать торрент
[ Размер 13.22 КБ / Просмотров 6 ]

Статус
Проверен 
 
Размер  159.11 МБ
Приватный: Нет (DHT включён)
.torrent скачан  0
 


     Отправить личное сообщение
   
Страница 1 из 1
Показать сообщения за:  Поле сортировки  
Начать новую тему Ответить на тему


Сейчас этот форум просматривают: нет зарегистрированных пользователей и гости: 0


Вы не можете начинать темы
Вы не можете отвечать на сообщения
Вы не можете редактировать свои сообщения
Вы не можете удалять свои сообщения
Вы не можете добавлять вложения

Перейти:  
cron