Начать новую тему Ответить на тему
Статистика раздачи
Размер: 437.14 МБ | Добавлен: 26 июн 2020, 19:49 | Скачали: 0
Сидеров: 0  [0 байт/сек]    Личеров: 0  [0 байт/сек]
Пред. тема | След. тема 

Автор
Сообщение

СообщениеДобавлено: 26 июн 2020, 19:49 

Ответить с цитатой 

Front Line Assembly - Replicate 01: A Tribute To Front Line Assembly
Жанр: EBM, Industrial
Носитель: CD
Страна-производитель диска (релиза): UK
Год издания: 2003
Издатель (лейбл): MOMT – MOMTCD001
Страна исполнителя (группы): Канада
Аудиокодек: FLAC (*.flac)
Тип рипа: image+.cue
Битрейт аудио: lossless
Продолжительность: 01:04:58
Метод рипа: EAC test+copy
Источник (релизер): CD из личной коллекции
Наличие сканов в содержимом раздачи: да
Треклист:
01. Such - Fatalist (6:02)
02. G-Gap - Search and Destroy (5:40)
03. C8K - Infra Red Combat (8:54)
04. Mantizza - Everything Must Perish (5:57)
05. 21st Century Jesus - Haloed XP (6:07)
06. K-Nitrate - Solitude of Confinement (6:00)
07. The Pain Machinery - Collapsed (4:50)
08. Maskfoder - Mental Distortion (feat. Anticbiotic) (5:39)
09. Scribe Machine - Threshold (5:12)
10. Thoughtcrime - Digital Tension Dementia (5:57)
11. Mark R - Outcast (4:35)
Код:
Exact Audio Copy V1.1 from 23. June 2015
Отчёт EAC об извлечении, выполненном 26. января 2016, 14:06
Various Artists / Replicate 01: A Tribute to Front Line Assembly
Дисковод: Optiarc DVD RW AD-7630A   Adapter: 5  ID: 5
Режим чтения                 : Достоверность
Использование точного потока : Да
Отключение кэша аудио        : Да
Использование указателей C2  : Нет
Коррекция смещения при чтении                     : 48
Способность читать области Lead-in и Lead-out     : Нет
Заполнение пропущенных сэмплов тишиной            : Да
Удаление блоков с тишиной в начале и конце        : Нет
При вычислениях CRC использовались нулевые сэмплы : Да
Интерфейс                                         : Установленный внешний ASPI-интерфейс
Выходной формат          : Пользовательский кодировщик
Выбранный битрейт        : 1024 kBit/s
Качество                 : Высокий
Добавление ID3-тега      : Нет
Утилита сжатия           : C:\Program Files\Exact Audio Copy\FLAC\FLAC.EXE
Дополнительные параметры : -6 -V -T "ARTIST=%artist%" -T "TITLE=%title%" -T "ALBUM=%albumtitle%" -T "DATE=%year%" -T "TRACKNUMBER=%tracknr%" -T "GENRE=%genre%" -T "COMMENT=%comment%" -T "BAND=%albuminterpret%" -T "ALBUMARTIST=%albuminterpret%" -T "COMPOSER=%composer%" %haslyrics%--tag-from-file=LYRICS="%lyricsfile%"%haslyrics% -T "DISCNUMBER=%cdnumber%" -T "TOTALDISCS=%totalcds%" -T "TOTALTRACKS=%numtracks%" %hascover%--picture="%coverfile%"%hascover% %source% -o %dest%
TOC извлечённого CD
     Трек |   Старт  | Длительность | Начальный сектор | Конечный сектор
    ---------------------------------------------------------------------
       1  |  0:00.00 |    6:02.19   |           0      |      27168
       2  |  6:02.19 |    5:40.06   |       27169      |      52674
       3  | 11:42.25 |    8:54.23   |       52675      |      92747
       4  | 20:36.48 |    5:57.49   |       92748      |     119571
       5  | 26:34.22 |    6:07.65   |      119572      |     147161
       6  | 32:42.12 |    6:00.23   |      147162      |     174184
       7  | 38:42.35 |    4:50.49   |      174185      |     195983
       8  | 43:33.09 |    5:39.31   |      195984      |     221439
       9  | 49:12.40 |    5:12.08   |      221440      |     244847
      10  | 54:24.48 |    5:57.52   |      244848      |     271674
      11  | 60:22.25 |    4:35.16   |      271675      |     292315
Характеристики диапазона извлечения и сообщения об ошибках
Выбранный диапазон
     Имя файла D:\Раздачи на torrents.ru\Replicate 01\Various Artists - Replicate 01- A Tribute to Front Line Assembly.wav
     Пиковый уровень 99.9 %
     Скорость извлечения 5.0 X
     Качество диапазона 100.0 %
     CRC теста 8B5DC2E3
     CRC копии 8B5DC2E3
     Копирование... OK
Ошибок не произошло
Конец отчёта
---- CUETools DB Plugin V2.1.6
[CTDB TOCID: x5Gus26FW8Xv4GIUo6_VqC0sJL4-] found
Submit result: already submitted
Track | CTDB Status
  1   | (4/4) Accurately ripped
  2   | (4/4) Accurately ripped
  3   | (4/4) Accurately ripped
  4   | (4/4) Accurately ripped
  5   | (4/4) Accurately ripped
  6   | (4/4) Accurately ripped
  7   | (4/4) Accurately ripped
  8   | (4/4) Accurately ripped
  9   | (4/4) Accurately ripped
 10   | (4/4) Accurately ripped
 11   | (4/4) Accurately ripped
Доп. информация: http://www.discogs.com/Various-Replicate-01-A-Tribute-To-Front-Line-Assembly/release/829901
Правила, инструкции, FAQ!!!
Торрент  Добавлен [26 июн 2020, 19:49] Скачать торрент Магнет ссылка
Скачать торрент
[ Размер 18.2 КБ / Просмотров 7 ]

Статус
Проверен 
 
Размер  437.14 МБ
Приватный: Нет (DHT включён)
.torrent скачан  0
 


     Отправить личное сообщение
   
Страница 1 из 1
Показать сообщения за:  Поле сортировки  
Начать новую тему Ответить на тему


Сейчас этот форум просматривают: нет зарегистрированных пользователей и гости: 0


Вы не можете начинать темы
Вы не можете отвечать на сообщения
Вы не можете редактировать свои сообщения
Вы не можете удалять свои сообщения
Вы не можете добавлять вложения

Перейти:  
cron