Начать новую тему Ответить на тему
Статистика раздачи
Размер: 568.56 МБ | Добавлен: 26 июн 2020, 20:39 | Скачали: 0
Сидеров: 0  [0 байт/сек]    Личеров: 0  [0 байт/сек]
Пред. тема | След. тема 

Автор
Сообщение

СообщениеДобавлено: 26 июн 2020, 20:39 

Ответить с цитатой 

Front Line Assembly / Plasticity
Жанр: EBM, Industrial
Страна-производитель диска: Germany
Год издания: 2012
Издатель (лейбл): Infacted Recordings
Номер по каталогу: FACT 3197
Страна: Canada
Аудиокодек: FLAC (*.flac)
Тип рипа: image+.cue
Битрейт аудио: lossless
Продолжительность: 1:15:55.01
Источник (релизер): CD из личной коллекции.
Наличие сканов в содержимом раздачи: да
Треклист:
01. Plasticity 6:47
02. Replicant 5:14
03. Plasticity (Zero By Haujobb) 7:05
04. Fatalist 5:17
05. Retribution 5:11
06. Deception 6:14
07. Fatalist (Aqualite Remix) 6:37
08. Prophecy (Haujobb Remix) 5:04
09. Fatalist (Tribal Techno Mix By Aqualite) 5:26
10. Prophecy (Album Version) 6:57
11. Prophecy (Radio One) 4:06
12. Prophecy (YK2000 Mix) 7:37
13. Unknown Dreams (Radio Two) 3:57
Discogs
Код:
Exact Audio Copy V1.0 beta 3 from 29. August 2011
Отчёт EAC об извлечении, выполненном 20. марта 2012, 7:44
Front Line Assembly / Plasticity
Дисковод: PIONEER DVD-RW  DVR-XD10   Adapter: 1  ID: 0
Режим чтения                 : Достоверность
Использование точного потока : Да
Отключение кэша аудио        : Да
Использование указателей C2  : Нет
Коррекция смещения при чтении                     : 96
Способность читать области Lead-in и Lead-out     : Нет
Заполнение пропущенных сэмплов тишиной            : Да
Удаление блоков с тишиной в начале и конце        : Нет
При вычислениях CRC использовались нулевые сэмплы : Да
Интерфейс                                         : Встроенный Win32-интерфейс для Win NT/2000
Выходной формат          : Пользовательский кодировщик
Выбранный битрейт        : 1024 kBit/s
Качество                 : Высокий
Добавление ID3-тега      : Нет
Утилита сжатия           : C:\Program Files\Exact Audio Copy\FLAC\FLAC.EXE
Дополнительные параметры : -6 -V -T "ARTIST=%artist%" -T "TITLE=%title%" -T "ALBUM=%albumtitle%" -T "DATE=%year%" -T "TRACKNUMBER=%tracknr%" -T "GENRE=%genre%" -T "COMMENT=%comment%" -T "BAND=%albuminterpret%" -T "ALBUMARTIST=%albuminterpret%" -T "COMPOSER=%composer%" %haslyrics%--tag-from-file=LYRICS="%lyricsfile%"%haslyrics% -T "DISCNUMBER=%cdnumber%" -T "TOTALDISCS=%totalcds%" -T "TOTALTRACKS=%numtracks%" %hascover%--picture="%coverfile%"%hascover% %source% -o %dest%
TOC извлечённого CD
     Трек |   Старт  | Длительность | Начальный сектор | Конечный сектор
    ---------------------------------------------------------------------
       1  |  0:00.00 |    6:48.55   |           0      |      30654
       2  |  6:48.55 |    5:16.25   |       30655      |      54379
       3  | 12:05.05 |    7:06.70   |       54380      |      86399
       4  | 19:12.00 |    5:19.18   |       86400      |     110342
       5  | 24:31.18 |    5:13.31   |      110343      |     133848
       6  | 29:44.49 |    6:15.46   |      133849      |     162019
       7  | 36:00.20 |    6:38.38   |      162020      |     191907
       8  | 42:38.58 |    5:06.00   |      191908      |     214857
       9  | 47:44.58 |    5:27.48   |      214858      |     239430
      10  | 53:12.31 |    6:58.55   |      239431      |     270835
      11  | 60:11.11 |    4:08.20   |      270836      |     289455
      12  | 64:19.31 |    7:39.02   |      289456      |     323882
      13  | 71:58.33 |    3:56.43   |      323883      |     341625
Характеристики диапазона извлечения и сообщения об ошибках
Выбранный диапазон
     Имя файла C:\Users\Алексей\Desktop\iPOD\Front Line Assembly - Plasticity.wav
     Пиковый уровень 100.0 %
     Скорость извлечения 4.5 X
     Качество диапазона 100.0 %
     CRC теста D41CFE0F
     CRC копии D41CFE0F
     Копирование... OK
Ошибок не произошло
AccurateRip: сводка
Трек  1  отсутствует в базе данных
Трек  2  отсутствует в базе данных
Трек  3  отсутствует в базе данных
Трек  4  отсутствует в базе данных
Трек  5  отсутствует в базе данных
Трек  6  отсутствует в базе данных
Трек  7  отсутствует в базе данных
Трек  8  отсутствует в базе данных
Трек  9  отсутствует в базе данных
Трек 10  отсутствует в базе данных
Трек 11  отсутствует в базе данных
Трек 12  отсутствует в базе данных
Трек 13  отсутствует в базе данных
Ни одного трека нет в базе AccurateRip
Конец отчёта
==== Контрольная сумма отчёта 1FD3B87FBD679176C4F3560B5B0EA291ACE679D89D3802B31BDF2759735BEFDC ====
Код:
REM GENRE Industrial
REM DATE 2012
REM DISCID AE11CB0D
REM COMMENT "ExactAudioCopy v1.0b3"
PERFORMER "Front Line Assembly"
TITLE "Plasticity "
FILE "Front Line Assembly - Plasticity.flac" WAVE
  TRACK 01 AUDIO
    TITLE "Plasticity"
    PERFORMER "Front Line Assembly"
    INDEX 01 00:00:00
  TRACK 02 AUDIO
    TITLE "Replicant"
    PERFORMER "Front Line Assembly"
    INDEX 00 06:46:55
    INDEX 01 06:48:55
  TRACK 03 AUDIO
    TITLE "Plasticity (Zero By Haujobb)"
    PERFORMER "Front Line Assembly"
    INDEX 00 12:03:05
    INDEX 01 12:05:05
  TRACK 04 AUDIO
    TITLE "Fatalist"
    PERFORMER "Front Line Assembly"
    INDEX 00 19:10:00
    INDEX 01 19:12:00
  TRACK 05 AUDIO
    TITLE "Retribution"
    PERFORMER "Front Line Assembly"
    INDEX 00 24:29:18
    INDEX 01 24:31:18
  TRACK 06 AUDIO
    TITLE "Deception"
    PERFORMER "Front Line Assembly"
    INDEX 00 29:42:50
    INDEX 01 29:44:49
  TRACK 07 AUDIO
    TITLE "Fatalist (Aqualite Remix)"
    PERFORMER "Front Line Assembly"
    INDEX 00 35:58:20
    INDEX 01 36:00:20
  TRACK 08 AUDIO
    TITLE "Prophecy (Haujobb Remx)"
    PERFORMER "Front Line Assembly"
    INDEX 00 42:36:58
    INDEX 01 42:38:58
  TRACK 09 AUDIO
    TITLE "Fatalist (Tribal Techno Mix By Aqualite)"
    PERFORMER "Front Line Assembly"
    INDEX 00 47:42:58
    INDEX 01 47:44:58
  TRACK 10 AUDIO
    TITLE "Prophecy (Album Version)"
    PERFORMER "Front Line Assembly"
    INDEX 00 53:10:32
    INDEX 01 53:12:31
  TRACK 11 AUDIO
    TITLE "Prophecy (Radio One)"
    PERFORMER "Front Line Assembly"
    INDEX 00 60:09:11
    INDEX 01 60:11:11
  TRACK 12 AUDIO
    TITLE "Prophecy (YK2000 Mix)"
    PERFORMER "Front Line Assembly"
    INDEX 00 64:17:31
    INDEX 01 64:19:31
  TRACK 13 AUDIO
    TITLE "Unknown Dreams (Radio Two)"
    PERFORMER "Front Line Assembly"
    INDEX 00 71:56:33
    INDEX 01 71:58:33
Код:
[url=https://fastpic.ru/view/33/2012/0324/cef0adc27ded8499d953ac33ee022d39.jpg.html][img]http://i33.fastpic.ru/thumb/2012/0324/39/cef0adc27ded8499d953ac33ee022d39.jpeg[/img][/url][url=https://fastpic.ru/view/32/2012/0324/e47582c9873b1c43230077633571dc65.jpg.html][img]http://i32.fastpic.ru/thumb/2012/0324/65/e47582c9873b1c43230077633571dc65.jpeg[/img][/url][url=https://fastpic.ru/view/29/2012/0324/b38310480da4c5ba6da4bd4edd8d1dbe.jpg.html][img]http://i29.fastpic.ru/thumb/2012/0324/be/b38310480da4c5ba6da4bd4edd8d1dbe.jpeg[/img][/url][url=https://fastpic.ru/view/33/2012/0324/351d97d914c7c79b1b9ed62433e9847b.jpg.html][img]http://i33.fastpic.ru/thumb/2012/0324/7b/351d97d914c7c79b1b9ed62433e9847b.jpeg[/img][/url]
Правила, инструкции, FAQ!!!
Торрент  Добавлен [26 июн 2020, 20:39] Скачать торрент Магнет ссылка
Скачать торрент
[ Размер 12.29 КБ / Просмотров 8 ]

Статус
Проверен 
 
Размер  568.56 МБ
Приватный: Нет (DHT включён)
.torrent скачан  0
 


     Отправить личное сообщение
   
Страница 1 из 1
Показать сообщения за:  Поле сортировки  
Начать новую тему Ответить на тему


Сейчас этот форум просматривают: нет зарегистрированных пользователей и гости: 0


Вы не можете начинать темы
Вы не можете отвечать на сообщения
Вы не можете редактировать свои сообщения
Вы не можете удалять свои сообщения
Вы не можете добавлять вложения

Перейти:  
cron