Начать новую тему Ответить на тему
Статистика раздачи
Размер: 130.37 МБ | Добавлен: 26 июн 2020, 17:52 | Скачали: 0
Сидеров: 0  [0 байт/сек]    Личеров: 0  [0 байт/сек]
Пред. тема | След. тема 

Автор
Сообщение

СообщениеДобавлено: 26 июн 2020, 17:52 

Ответить с цитатой 

Front 242 / Tragedy ▷For You◁ Two
Жанр: EBM, Industrial
Страна-производитель диска: Austria
Год издания: 1990
Издатель (лейбл): Red Rhino Europe
Номер по каталогу: RRE R CD 10
Страна: Belgium
Аудиокодек: FLAC (*.flac)
Тип рипа: image+.cue
Битрейт аудио: lossless
Продолжительность: 00:16:56
Источник (релизер): Диск из личной коллекции
Наличие сканов в содержимом раздачи: да
Треклист:
1 Tragedy ▷For You◁ (Neurodancer) 6:56
2 Tragedy ▷For You◁ (Instrumental) 4:49
3 Trigger 3 5:03
Код:
Exact Audio Copy V1.0 beta 3 from 29. August 2011
EAC extraction logfile from 10. April 2012, 22:35
Front 242 / Tragedy For You Two MCD
Used drive  : TSSTcorpCDDVDW SH-222AL   Adapter: 4  ID: 0
Read mode               : Secure
Utilize accurate stream : Yes
Defeat audio cache      : Yes
Make use of C2 pointers : No
Read offset correction                      : 6
Overread into Lead-In and Lead-Out          : No
Fill up missing offset samples with silence : Yes
Delete leading and trailing silent blocks   : No
Null samples used in CRC calculations       : Yes
Used interface                              : Native Win32 interface for Win NT & 2000
Used output format : Internal WAV Routines
Sample format      : 44.100 Hz; 16 Bit; Stereo
TOC of the extracted CD
     Track |   Start  |  Length  | Start sector | End sector
    ---------------------------------------------------------
        1  |  0:00.32 |  7:00.18 |        32    |    31549
        2  |  7:00.50 |  4:51.50 |     31550    |    53424
        3  | 11:52.25 |  5:05.07 |     53425    |    76306
Range status and errors
Selected range
     Filename F:\Torrents_razdacha\Front 242 - Tragedy For You Two MCD 1990\Front 242 - Tragedy For You Two MCD 1990.wav
     Peak level 99.2 %
     Extraction speed 2.2 X
     Range quality 100.0 %
     Test CRC 54524446
     Copy CRC 54524446
     Copy OK
No errors occurred
AccurateRip summary
Track  1  accurately ripped (confidence 2)  [88678C73]  (AR v2)
Track  2  accurately ripped (confidence 2)  [F350B0EC]  (AR v2)
Track  3  accurately ripped (confidence 2)  [B392D18F]  (AR v2)
All tracks accurately ripped
End of status report
==== Log checksum AC4BA73E31C2527AA87461FC0B04610BF0BA4B5CB6952494A89848F67CD6658A ====
Код:
REM GENRE Industrial
REM DATE 1990
REM DISCID 1603F903
REM COMMENT "ExactAudioCopy v1.0b3"
CATALOG 0000000000000
PERFORMER "Front 242"
TITLE "Tragedy For You Two MCD"
FILE "Front 242 - Tragedy For You Two MCD 1990.flac" WAVE
  TRACK 01 AUDIO
    TITLE "Tragedy For You (Neurodancer)"
    PERFORMER "Front 242"
    ISRC 000000000000
    INDEX 00 00:00:00
    INDEX 01 00:00:32
  TRACK 02 AUDIO
    TITLE "Tragedy For You (Instrumental)"
    PERFORMER "Front 242"
    ISRC 000000000000
    INDEX 00 06:58:12
    INDEX 01 07:00:50
  TRACK 03 AUDIO
    TITLE "Trigger 3"
    PERFORMER "Front 242"
    ISRC 000000000000
    INDEX 00 11:49:47
    INDEX 01 11:52:25
Раритетом особо не назовешь, но диск заводной
Правила, инструкции, FAQ!!!
Торрент  Добавлен [26 июн 2020, 17:52] Скачать торрент Магнет ссылка
Скачать торрент
[ Размер 11.03 КБ / Просмотров 13 ]

Статус
Проверен 
 
Размер  130.37 МБ
Приватный: Нет (DHT включён)
.torrent скачан  0
 


     Отправить личное сообщение
   
Страница 1 из 1
Показать сообщения за:  Поле сортировки  
Начать новую тему Ответить на тему


Сейчас этот форум просматривают: нет зарегистрированных пользователей и гости: 0


Вы не можете начинать темы
Вы не можете отвечать на сообщения
Вы не можете редактировать свои сообщения
Вы не можете удалять свои сообщения
Вы не можете добавлять вложения

Перейти:  
cron