Начать новую тему Ответить на тему
Статистика раздачи
Размер: 132.66 МБ | Добавлен: 26 июн 2020, 17:22 | Скачали: 0
Сидеров: 0  [0 байт/сек]    Личеров: 0  [0 байт/сек]
Пред. тема | След. тема 

Автор
Сообщение

СообщениеДобавлено: 26 июн 2020, 17:22 

Ответить с цитатой 

Front 242 / Religion (Promo Single)
Жанр: EBM, Industrial
Страна-производитель диска: USA
Год издания диска: 1993
Издатель (лейбл): EPIC
Номер по каталогу: ESK 5146
Страна: Belgium
Аудиокодек: FLAC (*.flac)
Тип рипа: image+.cue
Битрейт аудио: lossless
Продолжительность: 00:12:14
Источник (релизер): Диск из личной коллекции
Наличие сканов в содержимом раздачи: да
Треклист:
1 Religion (7" Mix) Remix – Andy Wallace 3:35
2 Crapage 4:59
3 Religion (Bitch Slapper Mix) Remix – J.G. Thirlwell 3:40
Код:
Exact Audio Copy V1.0 beta 3 from 29. August 2011
EAC extraction logfile from 14. March 2012, 21:34
Front 242 / Religion (promo)
Used drive  : TSSTcorpCDDVDW SH-222AL   Adapter: 4  ID: 0
Read mode               : Secure
Utilize accurate stream : Yes
Defeat audio cache      : Yes
Make use of C2 pointers : No
Read offset correction                      : 6
Overread into Lead-In and Lead-Out          : No
Fill up missing offset samples with silence : Yes
Delete leading and trailing silent blocks   : No
Null samples used in CRC calculations       : Yes
Used interface                              : Native Win32 interface for Win NT & 2000
Used output format : Internal WAV Routines
Sample format      : 44.100 Hz; 16 Bit; Stereo
TOC of the extracted CD
     Track |   Start  |  Length  | Start sector | End sector
    ---------------------------------------------------------
        1  |  0:00.00 |  3:35.35 |         0    |    16159
        2  |  3:35.35 |  4:59.32 |     16160    |    38616
        3  |  8:34.67 |  3:40.00 |     38617    |    55116
Range status and errors
Selected range
     Filename F:\Front 242 - Religion (promo).wav
     Peak level 99.2 %
     Extraction speed 2.3 X
     Range quality 100.0 %
     Test CRC 2F1770AC
     Copy CRC 2F1770AC
     Copy OK
No errors occurred
AccurateRip summary
Track  1  not present in database
Track  2  not present in database
Track  3  not present in database
None of the tracks are present in the AccurateRip database
End of status report
==== Log checksum 4A03BCF9BAF3EA724EE22B24242165F1DCBB8DDCDF1BD62920129BC188929271 ====
Код:
REM DATE 1993
REM DISCID 1802DE03
REM COMMENT "ExactAudioCopy v1.0b3"
PERFORMER "Front 242"
TITLE "Religion (promo)"
FILE "Front 242 - Religion (promo).wav" WAVE
  TRACK 01 AUDIO
    TITLE "Religion (7' mix)"
    PERFORMER "Front 242"
    INDEX 01 00:00:00
  TRACK 02 AUDIO
    TITLE "Crapage"
    PERFORMER "Front 242"
    INDEX 00 03:32:62
    INDEX 01 03:35:35
  TRACK 03 AUDIO
    TITLE "Religion (Bitch Slapper mix)"
    PERFORMER "Front 242"
    INDEX 00 08:32:70
    INDEX 01 08:34:67
Промо-издание, передней обложки нет (в смысле не было предусмотрено вообще)
Правила, инструкции, FAQ!!!
Торрент  Добавлен [26 июн 2020, 17:22] Скачать торрент Магнет ссылка
Скачать торрент
[ Размер 11.14 КБ / Просмотров 9 ]

Статус
Проверен 
 
Размер  132.66 МБ
Приватный: Нет (DHT включён)
.torrent скачан  0
 


     Отправить личное сообщение
   
Страница 1 из 1
Показать сообщения за:  Поле сортировки  
Начать новую тему Ответить на тему


Сейчас этот форум просматривают: нет зарегистрированных пользователей и гости: 0


Вы не можете начинать темы
Вы не можете отвечать на сообщения
Вы не можете редактировать свои сообщения
Вы не можете удалять свои сообщения
Вы не можете добавлять вложения

Перейти:  
cron