Начать новую тему Ответить на тему
Статистика раздачи
Размер: 437.84 МБ | Добавлен: 26 июн 2020, 21:07 | Скачали: 0
Сидеров: 0  [0 байт/сек]    Личеров: 0  [0 байт/сек]
Пред. тема | След. тема 

Автор
Сообщение

СообщениеДобавлено: 26 июн 2020, 21:07 

Ответить с цитатой 

Front 242 / 242 (Promo)
Жанр: EBM, Industrial
Страна-производитель диска: USA
Год издания: 1992
Издатель (лейбл): Epic
Номер по каталогу: ESK 4488
Страна: Belgium
Аудиокодек: FLAC (*.flac)
Тип рипа: image+.cue
Битрейт аудио: lossless
Продолжительность: 01:05:33
Источник (релизер): Личная коллекция
Наличие сканов в содержимом раздачи: да
Треклист:
1 Operating Tracks 3:49
2 U-Men 3:13
3 No Shuffle 3:50
4 Body To Body 4:15
5 Quite Unusual 3:49
6 Masterhit Part I & II 7:07
7 Headhunter V3.0 4:45
8 Welcome To Paradise 5:17
9 Funkahdafi 3:15
10 Don't Crash 4:51
11 Soul Manager 5:07
12 Tragedy >For You< 4:30
13 DSM 01 4:25
14 DSM 02 2:15
15 DSM 03 1:55
16 DSM 04 3:37
Код:
Exact Audio Copy V1.0 beta 3 from 29. August 2011
EAC extraction logfile from 23. March 2013, 14:20
Front 242 / 242 (Promo)
Used drive  : TSSTcorpCDDVDW SH-222AL   Adapter: 1  ID: 0
Read mode               : Secure
Utilize accurate stream : Yes
Defeat audio cache      : Yes
Make use of C2 pointers : No
Read offset correction                      : 6
Overread into Lead-In and Lead-Out          : No
Fill up missing offset samples with silence : Yes
Delete leading and trailing silent blocks   : No
Null samples used in CRC calculations       : Yes
Used interface                              : Installed external ASPI interface
Used output format : Internal WAV Routines
Sample format      : 44.100 Hz; 16 Bit; Stereo
TOC of the extracted CD
     Track |   Start  |  Length  | Start sector | End sector
    ---------------------------------------------------------
        1  |  0:00.00 |  3:52.55 |         0    |    17454
        2  |  3:52.55 |  3:16.20 |     17455    |    32174
        3  |  7:09.00 |  3:57.35 |     32175    |    49984
        4  | 11:06.35 |  4:15.25 |     49985    |    69134
        5  | 15:21.60 |  3:49.10 |     69135    |    86319
        6  | 19:10.70 |  7:06.47 |     86320    |   118316
        7  | 26:17.42 |  4:45.28 |    118317    |   139719
        8  | 31:02.70 |  5:19.20 |    139720    |   163664
        9  | 36:22.15 |  3:16.55 |    163665    |   178419
       10  | 39:38.70 |  4:53.30 |    178420    |   200424
       11  | 44:32.25 |  4:15.02 |    200425    |   219551
       12  | 48:47.27 |  4:32.45 |    219552    |   239996
       13  | 53:19.72 |  4:25.73 |    239997    |   259944
       14  | 57:45.70 |  2:12.42 |    259945    |   269886
       15  | 59:58.37 |  1:59.68 |    269887    |   278879
       16  | 61:58.30 |  3:35.02 |    278880    |   295006
Range status and errors
Selected range
     Filename D:\torrent-razdacha\Front 242 - 242 (Promo)\Front 242 - 242 (Promo).wav
     Peak level 100.0 %
     Extraction speed 8.3 X
     Range quality 100.0 %
     Test CRC FCD1F50B
     Copy CRC FCD1F50B
     Copy OK
No errors occurred
AccurateRip summary
Track  1  accurately ripped (confidence 6)  [C680FBAB]  (AR v1)
Track  2  accurately ripped (confidence 6)  [70C4C358]  (AR v1)
Track  3  accurately ripped (confidence 6)  [AD555E77]  (AR v1)
Track  4  accurately ripped (confidence 6)  [31581357]  (AR v1)
Track  5  accurately ripped (confidence 5)  [9F8B1AAA]  (AR v1)
Track  6  accurately ripped (confidence 5)  [7E69DAEC]  (AR v1)
Track  7  accurately ripped (confidence 5)  [9BF020E4]  (AR v1)
Track  8  accurately ripped (confidence 5)  [38449622]  (AR v1)
Track  9  accurately ripped (confidence 5)  [0F59243D]  (AR v1)
Track 10  accurately ripped (confidence 5)  [ED519B0A]  (AR v1)
Track 11  accurately ripped (confidence 5)  [A4FA796F]  (AR v1)
Track 12  accurately ripped (confidence 6)  [D23E4526]  (AR v1)
Track 13  accurately ripped (confidence 6)  [BE37C03B]  (AR v1)
Track 14  accurately ripped (confidence 5)  [CED29D87]  (AR v1)
Track 15  accurately ripped (confidence 5)  [C7F70082]  (AR v1)
Track 16  accurately ripped (confidence 4)  [1D15294A]  (AR v1)
All tracks accurately ripped
End of status report
==== Log checksum 85429308178ADAE3FDDA2072BBA9762E608C7AEB2A14D7B966B5FBDB0A5D53E2 ====
Код:
REM GENRE Industrial
REM DATE 1992
REM DISCID DB0F5D10
REM COMMENT "ExactAudioCopy v1.0b3"
PERFORMER "Front 242"
TITLE "242 (Promo)"
FILE "Front 242 - 242 (Promo).flac" WAVE
  TRACK 01 AUDIO
    TITLE "Operating Tracks"
    PERFORMER "Front 242"
    INDEX 01 00:00:00
  TRACK 02 AUDIO
    TITLE "U-Men"
    PERFORMER "Front 242"
    INDEX 00 03:50:27
    INDEX 01 03:52:55
  TRACK 03 AUDIO
    TITLE "No Shuffle"
    PERFORMER "Front 242"
    INDEX 00 07:06:67
    INDEX 01 07:09:00
  TRACK 04 AUDIO
    TITLE "Body to Body"
    PERFORMER "Front 242"
    INDEX 00 11:04:65
    INDEX 01 11:06:35
  TRACK 05 AUDIO
    TITLE "Quite Unusual"
    PERFORMER "Front 242"
    INDEX 00 15:21:00
    INDEX 01 15:21:60
  TRACK 06 AUDIO
    TITLE "Masterhit - Part I & II -"
    PERFORMER "Front 242"
    INDEX 00 19:09:15
    INDEX 01 19:10:70
  TRACK 07 AUDIO
    TITLE "Headhunter V3.0"
    PERFORMER "Front 242"
    INDEX 00 26:16:47
    INDEX 01 26:17:42
  TRACK 08 AUDIO
    TITLE "Welcome To Paradise"
    PERFORMER "Front 242"
    INDEX 00 31:02:35
    INDEX 01 31:02:70
  TRACK 09 AUDIO
    TITLE "Funkahdafi"
    PERFORMER "Front 242"
    INDEX 00 36:21:05
    INDEX 01 36:22:15
  TRACK 10 AUDIO
    TITLE "Don't Crash"
    PERFORMER "Front 242"
    INDEX 00 39:38:67
    INDEX 01 39:38:70
  TRACK 11 AUDIO
    TITLE "Soul Manager"
    PERFORMER "Front 242"
    INDEX 00 44:31:32
    INDEX 01 44:32:25
  TRACK 12 AUDIO
    TITLE "Tragedy >For You<"
    PERFORMER "Front 242"
    INDEX 00 48:45:45
    INDEX 01 48:47:27
  TRACK 13 AUDIO
    TITLE "DSM 01"
    PERFORMER "Front 242"
    INDEX 00 53:18:72
    INDEX 01 53:19:72
  TRACK 14 AUDIO
    TITLE "DSM 02"
    PERFORMER "Front 242"
    INDEX 01 57:45:70
  TRACK 15 AUDIO
    TITLE "DSM 03"
    PERFORMER "Front 242"
    INDEX 01 59:58:37
  TRACK 16 AUDIO
    TITLE "DSM 04"
    PERFORMER "Front 242"
    INDEX 01 61:58:30
Правила, инструкции, FAQ!!!
Торрент  Добавлен [26 июн 2020, 21:07] Скачать торрент Магнет ссылка
Скачать торрент
[ Размер 17.88 КБ / Просмотров 11 ]

Статус
Проверен 
 
Размер  437.84 МБ
Приватный: Нет (DHT включён)
.torrent скачан  0
 


     Отправить личное сообщение
   
Страница 1 из 1
Показать сообщения за:  Поле сортировки  
Начать новую тему Ответить на тему


Сейчас этот форум просматривают: нет зарегистрированных пользователей и гости: 0


Вы не можете начинать темы
Вы не можете отвечать на сообщения
Вы не можете редактировать свои сообщения
Вы не можете удалять свои сообщения
Вы не можете добавлять вложения

Перейти:  
cron