Начать новую тему Ответить на тему
Статистика раздачи
Размер: 852.27 МБ | Добавлен: 26 июн 2020, 17:27 | Скачали: 0
Сидеров: 1  [0 байт/сек]    Личеров: 0  [0 байт/сек]
Пред. тема | След. тема 

Автор
Сообщение

СообщениеДобавлено: 26 июн 2020, 17:27 

Ответить с цитатой 

Freakangel / The Faults Of Humanity [Limited Edition]
Жанр: EBM industrial
Страна-производитель диска: Belgium
Год издания диска: 2010
Издатель (лейбл): Alfa Matrix
Номер по каталогу: AM-1149-CD
Аудио кодек: FLAC (*.flac)
Тип рипа: image+.cue
Битрейт аудио: lossless
Продолжительность Disc1: 42:19.04;
Продолжительность Disc2: 1:03:47.59
Источник (релизер): Физический носитель
Наличие сканов в содержимом раздачи: да
Треклист:
Disc1 - The Faults Of Humanity
01. Frailty [1:17]
02. Gods Blind Game [5:04]
03. My Darling Bullet [4:20]
04. Crawling In The Dark [4:28]
05. The Last White Dance [4:14]
06. Curse. Forgive. Kill. Cure. [4:18]
07. Together Against It [4:40]
08. It's Not A Lovesong [4:24]
09. Price For All Of Us [4:29]
10. Under Code [4:08]
11. Finale [0:57]
Disc2 - Humanity By De-Fault
01. Together Against It (Psy'Aviah Rendition) [3:47]
02. The Last White Dance (AD Inferna remix) [5:39]
03. Crawling In The Dark (C-Lekktor remix) [5:01]
04. My Darling Bullet (Angels On Acid remix) [4:49]
05. Together Against It (Shiv-R remix) [5:11]
06. The Last White Dance (Gothika remix) [5:19]
07. Crawling In The Dark (Dolls Of Pain remix) [5:39]
08. My Darling Bullet (Mommy Hurt My Head remix) [4:22]
09. Together Against It (The Twilight Garden remix) [6:40]
10. The Last White Dance (Centhron remix) [3:20]
11. Crawling In The Dark (Kant Kino remix) [4:03]
12. My Darling Bullet (2 Bullet remix) [4:31]
13. Together Against It (De-Source remix) [5:28]
Код:
Exact Audio Copy V0.99 prebeta 5 from 4. May 2009
Отчёт EAC об извлечении, выполненном 23. сентября 2010, 21:07
Freakangel / The Faults Of Humanity
Дисковод: Optiarc DVD RW AD-7173A   Adapter: 0  ID: 0
Режим чтения                 : Достоверность
Использование точного потока : Да
Отключение кэша аудио        : Да
Использование указателей C2  : Нет
Коррекция смещения при чтении                     : 48
Способность читать области Lead-in и Lead-out     : Нет
Заполнение пропущенных сэмплов тишиной            : Да
Удаление блоков с тишиной в начале и конце        : Нет
При вычислениях CRC использовались нулевые сэмплы : Да
Интерфейс                                         : Установленный внешний ASPI-интерфейс
Выходной формат          : Пользовательский кодировщик
Выбранный битрейт        : 1024 kBit/s
Качество                 : Высокий
Добавление ID3-тэга      : Нет
Утилита сжатия           : C:\Program Files\Exact Audio Copy\flac.exe
Дополнительные параметры : -6 -V -T "ARTIST=%a" -T "TITLE=%t" -T "ALBUM=%g" -T "DATE=%y" -T "TRACKNUMBER=%n" -T "GENRE=%m" -T "COMMENT=%e" %s -o %d
TOC извлечённого CD
     Трек |   Старт  | Длительность | Начальный сектор | Конечный сектор
    ---------------------------------------------------------------------
       1  |  0:00.00 |    1:17.32   |           0      |       5806
       2  |  1:17.32 |    5:03.66   |        5807      |      28597
       3  |  6:21.23 |    4:20.10   |       28598      |      48107
       4  | 10:41.33 |    4:27.44   |       48108      |      68176
       5  | 15:09.02 |    4:14.29   |       68177      |      87255
       6  | 19:23.31 |    4:17.40   |       87256      |     106570
       7  | 23:40.71 |    4:39.67   |      106571      |     127562
       8  | 28:20.63 |    4:24.09   |      127563      |     147371
       9  | 32:44.72 |    4:29.25   |      147372      |     167571
      10  | 37:14.22 |    4:07.70   |      167572      |     186166
      11  | 41:22.17 |    0:56.62   |      186167      |     190428
Характеристики диапазона извлечения и сообщения об ошибках
Выбранный диапазон
     Имя файла H:\СКАЧКА\FLAC\Freakangel - The Faults Of Humanity.wav
     Пиковый уровень 97.9 %
     Качество диапазона 100.0 %
     CRC теста FC798E76
     CRC копии FC798E76
     Копирование... OK
Ошибок не произошло
AccurateRip: сводка
Трек  1  нет в базе данных
Трек  2  нет в базе данных
Трек  3  нет в базе данных
Трек  4  нет в базе данных
Трек  5  нет в базе данных
Трек  6  нет в базе данных
Трек  7  нет в базе данных
Трек  8  нет в базе данных
Трек  9  нет в базе данных
Трек 10  нет в базе данных
Трек 11  нет в базе данных
Ни одного трека нет в базе AccurateRip
Конец отчёта
Код:
Exact Audio Copy V0.99 prebeta 5 from 4. May 2009
Отчёт EAC об извлечении, выполненном 24. сентября 2010, 7:00
Freakangel  / The Faults Of Humanity
Дисковод: Optiarc DVD RW AD-7173A   Adapter: 0  ID: 0
Режим чтения                 : Достоверность
Использование точного потока : Да
Отключение кэша аудио        : Да
Использование указателей C2  : Нет
Коррекция смещения при чтении                     : 48
Способность читать области Lead-in и Lead-out     : Нет
Заполнение пропущенных сэмплов тишиной            : Да
Удаление блоков с тишиной в начале и конце        : Нет
При вычислениях CRC использовались нулевые сэмплы : Да
Интерфейс                                         : Установленный внешний ASPI-интерфейс
Выходной формат          : Пользовательский кодировщик
Выбранный битрейт        : 1024 kBit/s
Качество                 : Высокий
Добавление ID3-тэга      : Нет
Утилита сжатия           : C:\Program Files\Exact Audio Copy\flac.exe
Дополнительные параметры : -6 -V -T "ARTIST=%a" -T "TITLE=%t" -T "ALBUM=%g" -T "DATE=%y" -T "TRACKNUMBER=%n" -T "GENRE=%m" -T "COMMENT=%e" %s -o %d
TOC извлечённого CD
     Трек |   Старт  | Длительность | Начальный сектор | Конечный сектор
    ---------------------------------------------------------------------
       1  |  0:00.00 |    3:47.07   |           0      |      17031
       2  |  3:47.07 |    5:38.46   |       17032      |      42427
       3  |  9:25.53 |    5:01.00   |       42428      |      65002
       4  | 14:26.53 |    4:49.09   |       65003      |      86686
       5  | 19:15.62 |    5:11.19   |       86687      |     110030
       6  | 24:27.06 |    5:18.53   |      110031      |     133933
       7  | 29:45.59 |    5:38.48   |      133934      |     159331
       8  | 35:24.32 |    4:22.36   |      159332      |     179017
       9  | 39:46.68 |    6:39.49   |      179018      |     208991
      10  | 46:26.42 |    3:19.74   |      208992      |     223990
      11  | 49:46.41 |    4:02.59   |      223991      |     242199
      12  | 53:49.25 |    4:30.39   |      242200      |     262488
      13  | 58:19.64 |    5:27.70   |      262489      |     287083
Характеристики диапазона извлечения и сообщения об ошибках
Выбранный диапазон
     Имя файла H:\СКАЧКА\FLAC\Freakangel 2010-The Faults Of Humanity (EBM industrial) [flac] (Alfa Matrix, Belgium)\Freakangel  - The Faults Of Humanity.wav
     Пиковый уровень 99.7 %
     Качество диапазона 100.0 %
     CRC теста 3635E11B
     CRC копии 6C56D99C
     Копирование... OK
Ошибок не произошло
AccurateRip: сводка
Трек  1  нет в базе данных
Трек  2  нет в базе данных
Трек  3  нет в базе данных
Трек  4  нет в базе данных
Трек  5  нет в базе данных
Трек  6  нет в базе данных
Трек  7  нет в базе данных
Трек  8  нет в базе данных
Трек  9  нет в базе данных
Трек 10  нет в базе данных
Трек 11  нет в базе данных
Трек 12  нет в базе данных
Трек 13  нет в базе данных
Ни одного трека нет в базе AccurateRip
Конец отчёта

Правила, инструкции, FAQ!!!
Торрент  Добавлен [26 июн 2020, 17:27] Скачать торрент Магнет ссылка
Скачать торрент
[ Размер 18.4 КБ / Просмотров 15 ]

Статус
Проверен 
 
Размер  852.27 МБ
Приватный: Нет (DHT включён)
.torrent скачан  0
 


     Отправить личное сообщение
   
Страница 1 из 1
Показать сообщения за:  Поле сортировки  
Начать новую тему Ответить на тему


Сейчас этот форум просматривают: нет зарегистрированных пользователей и гости: 0


Вы не можете начинать темы
Вы не можете отвечать на сообщения
Вы не можете редактировать свои сообщения
Вы не можете удалять свои сообщения
Вы не можете добавлять вложения

Перейти:  
cron