Начать новую тему Ответить на тему
Статистика раздачи
Размер: 512.94 МБ | Добавлен: 26 июн 2020, 17:34 | Скачали: 0
Сидеров: 0  [0 байт/сек]    Личеров: 0  [0 байт/сек]
Пред. тема | След. тема 

Автор
Сообщение

СообщениеДобавлено: 26 июн 2020, 17:34 

Ответить с цитатой 

Fix8:Sed8 / Humanophobia
Жанр: EBM, Industrial
Страна-производитель диска: Germany
Год издания диска: 2005
Издатель (лейбл): Not On Label
Номер по каталогу: None
Страна: Germany
Аудио кодек: FLAC (*.flac)
Тип рипа: image+.cue
Битрейт аудио: lossless
Продолжительность: 1:07:03.67
Источник (релизер): CD из личной коллекции.
Наличие сканов в содержимом раздачи: да
Треклист:
01. Quiet 3:08
02. Oblivion 5:11
03. Blashpemia 4:31
04. Damien 4:17
05. Monolith 5:41
06. Dementor 4:33
07. Killing Field 4:53
08. Tranquillized 5:56
09. Ultraviolent 6:30
10. Fetishist 4:59
11. Guilty 6:11
12. Minotaurus 5:29
13. Burial Ground 4:47
[url=http://www.discogs.com/FÏX8SËD8-Humanophobia/release/708095]Discogs[/url]
Код:
Exact Audio Copy V0.99 prebeta 5 from 4. May 2009
Отчёт EAC об извлечении, выполненном 3. апреля 2011, 7:58
Fix8:Sed8 / Humanophobia
Дисковод: TSSTcorpCDDVDW TS-L632H   Adapter: 0  ID: 0
Режим чтения                 : Достоверность
Использование точного потока : Да
Отключение кэша аудио        : Да
Использование указателей C2  : Нет
Коррекция смещения при чтении                     : 6
Способность читать области Lead-in и Lead-out     : Нет
Заполнение пропущенных сэмплов тишиной            : Да
Удаление блоков с тишиной в начале и конце        : Нет
При вычислениях CRC использовались нулевые сэмплы : Да
Интерфейс                                         : Встроенный Win32-интерфейс для Win NT/2000
Выходной формат          : Пользовательский кодировщик
Выбранный битрейт        : 1024 kBit/s
Качество                 : Высокий
Добавление ID3-тэга      : Нет
Утилита сжатия           : C:\Program Files\Exact Audio Copy\FLAC\FLAC.EXE
Дополнительные параметры : -6 -V -T "ARTIST=%a" -T "TITLE=%t" -T "ALBUM=%g" -T "DATE=%y" -T "TRACKNUMBER=%n" -T "GENRE=%m" -T "COMMENT=%e" %s -o %d
TOC извлечённого CD
     Трек |   Старт  | Длительность | Начальный сектор | Конечный сектор
    ---------------------------------------------------------------------
       1  |  0:00.00 |    3:09.37   |           0      |      14211
       2  |  3:09.37 |    5:09.40   |       14212      |      37426
       3  |  8:19.02 |    4:33.34   |       37427      |      57935
       4  | 12:52.36 |    4:15.10   |       57936      |      77070
       5  | 17:07.46 |    5:40.24   |       77071      |     102594
       6  | 22:47.70 |    4:31.40   |      102595      |     122959
       7  | 27:19.35 |    4:51.21   |      122960      |     144805
       8  | 32:10.56 |    6:54.42   |      144806      |     175897
       9  | 39:05.23 |    6:30.58   |      175898      |     205205
      10  | 45:36.06 |    5:03.40   |      205206      |     227970
      11  | 50:39.46 |    6:10.47   |      227971      |     255767
      12  | 56:50.18 |    5:31.00   |      255768      |     280592
      13  | 62:21.18 |    4:42.49   |      280593      |     301791
Характеристики диапазона извлечения и сообщения об ошибках
Выбранный диапазон
     Имя файла C:\Users\Алексей\Desktop\iPOD\Fix8 Sed8 - Humanophobia.wav
     Пиковый уровень 100.0 %
     Качество диапазона 100.0 %
     CRC теста FEC0F1E1
     CRC копии FEC0F1E1
     Копирование... OK
Ошибок не произошло
AccurateRip: сводка
Трек  1  нет в базе данных
Трек  2  нет в базе данных
Трек  3  нет в базе данных
Трек  4  нет в базе данных
Трек  5  нет в базе данных
Трек  6  нет в базе данных
Трек  7  нет в базе данных
Трек  8  нет в базе данных
Трек  9  нет в базе данных
Трек 10  нет в базе данных
Трек 11  нет в базе данных
Трек 12  нет в базе данных
Трек 13  нет в базе данных
Ни одного трека нет в базе AccurateRip
Конец отчёта
Код:
REM GENRE Electronic
REM DATE 2005
REM DISCID A60FB70D
REM COMMENT "ExactAudioCopy v0.99pb5"
PERFORMER "Fix8:Sed8"
TITLE "Humanophobia"
FILE "Fix8 Sed8 - Humanophobia.flac" WAVE
  TRACK 01 AUDIO
    TITLE "quiet"
    PERFORMER "Fix8:Sed8"
    FLAGS DCP
    INDEX 01 00:00:00
  TRACK 02 AUDIO
    TITLE "oblivion"
    PERFORMER "Fix8:Sed8"
    FLAGS DCP
    INDEX 00 03:06:56
    INDEX 01 03:09:37
  TRACK 03 AUDIO
    TITLE "blasphemia"
    PERFORMER "Fix8:Sed8"
    FLAGS DCP
    INDEX 00 08:17:02
    INDEX 01 08:19:02
  TRACK 04 AUDIO
    TITLE "damien"
    PERFORMER "Fix8:Sed8"
    FLAGS DCP
    INDEX 00 12:50:36
    INDEX 01 12:52:36
  TRACK 05 AUDIO
    TITLE "monolith"
    PERFORMER "Fix8:Sed8"
    FLAGS DCP
    INDEX 00 17:05:46
    INDEX 01 17:07:46
  TRACK 06 AUDIO
    TITLE "dementor"
    PERFORMER "Fix8:Sed8"
    FLAGS DCP
    INDEX 00 22:45:70
    INDEX 01 22:47:70
  TRACK 07 AUDIO
    TITLE "killing field"
    PERFORMER "Fix8:Sed8"
    FLAGS DCP
    INDEX 00 27:17:35
    INDEX 01 27:19:35
  TRACK 08 AUDIO
    TITLE "tranquillized"
    PERFORMER "Fix8:Sed8"
    FLAGS DCP
    INDEX 00 32:08:56
    INDEX 01 32:10:56
  TRACK 09 AUDIO
    TITLE "ultraviolent"
    PERFORMER "Fix8:Sed8"
    FLAGS DCP
    INDEX 00 39:03:23
    INDEX 01 39:05:23
  TRACK 10 AUDIO
    TITLE "fetishist"
    PERFORMER "Fix8:Sed8"
    FLAGS DCP
    INDEX 00 45:34:06
    INDEX 01 45:36:06
  TRACK 11 AUDIO
    TITLE "guilty"
    PERFORMER "Fix8:Sed8"
    FLAGS DCP
    INDEX 00 50:37:46
    INDEX 01 50:39:46
  TRACK 12 AUDIO
    TITLE "minotaurus"
    PERFORMER "Fix8:Sed8"
    FLAGS DCP
    INDEX 00 56:48:18
    INDEX 01 56:50:18
  TRACK 13 AUDIO
    TITLE "burial ground"
    PERFORMER "Fix8:Sed8"
    FLAGS DCP
    INDEX 00 62:19:18
    INDEX 01 62:21:18
Код:
[url=https://fastpic.ru/view/20/2011/0502/625731e19c259176e6086ecc7a6eb4ff.jpg.html][img]http://i20.fastpic.ru/thumb/2011/0502/ff/625731e19c259176e6086ecc7a6eb4ff.jpeg[/img][/url][url=https://fastpic.ru/view/20/2011/0502/90a9a4ae8767a3e3a8ec75137d70394c.jpg.html][img]http://i20.fastpic.ru/thumb/2011/0502/4c/90a9a4ae8767a3e3a8ec75137d70394c.jpeg[/img][/url][url=https://fastpic.ru/view/20/2011/0502/5733ed392c281135dad5b98fe3da818c.jpg.html][img]http://i20.fastpic.ru/thumb/2011/0502/8c/5733ed392c281135dad5b98fe3da818c.jpeg[/img][/url][url=https://fastpic.ru/view/20/2011/0502/6c7abe4dce802a86b3edfb90da42562f.jpg.html][img]http://i20.fastpic.ru/thumb/2011/0502/2f/6c7abe4dce802a86b3edfb90da42562f.jpeg[/img][/url]
Выражаю благодарность kergarn`у за HQ scans!
Правила, инструкции, FAQ!!!
Торрент  Добавлен [26 июн 2020, 17:34] Скачать торрент Магнет ссылка
Скачать торрент
[ Размер 11.43 КБ / Просмотров 8 ]

Статус
Проверен 
 
Размер  512.94 МБ
Приватный: Нет (DHT включён)
.torrent скачан  0
 


     Отправить личное сообщение
   
Страница 1 из 1
Показать сообщения за:  Поле сортировки  
Начать новую тему Ответить на тему


Сейчас этот форум просматривают: нет зарегистрированных пользователей и гости: 0


Вы не можете начинать темы
Вы не можете отвечать на сообщения
Вы не можете редактировать свои сообщения
Вы не можете удалять свои сообщения
Вы не можете добавлять вложения

Перейти:  
cron