Начать новую тему Ответить на тему
Статистика раздачи
Размер: 138.1 МБ | Добавлен: 26 июн 2020, 17:24 | Скачали: 0
Сидеров: 0  [0 байт/сек]    Личеров: 0  [0 байт/сек]
Пред. тема | След. тема 

Автор
Сообщение

СообщениеДобавлено: 26 июн 2020, 17:24 

Ответить с цитатой 

Faderhead - Horizon Born [EP]
Жанр: EBM industrial
Год выпуска диска: 2009
Производитель диска: (L-Tracks Recordings, Germany)
Аудио кодек: FLAC
Тип рипа: image+.cue
Битрейт аудио: lossless
Продолжительность: 22:06.68
Трэклист:
1. Horizon Born [4:25]
2. Silent Every Day [3:34]
3. Taking Pain In Large Doses [4:42]
4. Ghost Outside These Walls [5:58]
5. Brave [3:27]
Источник: Физический носитель
Код:
Exact Audio Copy V0.99 prebeta 5 from 4. May 2009
Отчёт EAC об извлечении, выполненном 5. марта 2010, 10:37
Faderhead / Horizon Born
Дисковод: Optiarc DVD RW AD-7173A   Adapter: 0  ID: 0
Режим чтения                 : Достоверность
Использование точного потока : Да
Отключение кэша аудио        : Да
Использование указателей C2  : Нет
Коррекция смещения при чтении                     : 48
Способность читать области Lead-in и Lead-out     : Нет
Заполнение пропущенных сэмплов тишиной            : Да
Удаление блоков с тишиной в начале и конце        : Нет
При вычислениях CRC использовались нулевые сэмплы : Да
Интерфейс                                         : Установленный внешний ASPI-интерфейс
Выходной формат          : Пользовательский кодировщик
Выбранный битрейт        : 1024 kBit/s
Качество                 : Высокий
Добавление ID3-тэга      : Нет
Утилита сжатия           : C:\Program Files\Exact Audio Copy\Flac\flac.exe
Дополнительные параметры : -6 -V -T "ARTIST=%a" -T "TITLE=%t" -T "ALBUM=%g" -T "DATE=%y" -T "TRACKNUMBER=%n" -T "GENRE=%m" -T "COMMENT=%e" %s -o %d
TOC извлечённого CD
     Трек |   Старт  | Длительность | Начальный сектор | Конечный сектор
    ---------------------------------------------------------------------
       1  |  0:00.00 |    4:25.24   |           0      |      19898
       2  |  4:25.24 |    3:34.03   |       19899      |      35951
       3  |  7:59.27 |    4:42.32   |       35952      |      57133
       4  | 12:41.59 |    5:58.08   |       57134      |      83991
       5  | 18:39.67 |    3:27.01   |       83992      |      99517
Характеристики диапазона извлечения и сообщения об ошибках
Выбранный диапазон
     Имя файла H:\СКАЧКА\FLAC\1 TORRENT\Faderhead - Horizon Born.wav
     Пиковый уровень 98.8 %
     Качество диапазона 99.9 %
     CRC теста C36E25C3
     CRC копии C36E25C3
     Копирование... OK
Ошибок не произошло
AccurateRip: сводка
Трек  1  точное извлечение (доверие 1)  [EB545F3D]
Трек  2  точное извлечение (доверие 1)  [255D1DB4]
Трек  3  точное извлечение (доверие 1)  [4B29095C]
Трек  4  точное извлечение (доверие 1)  [A31F3B1A]
Трек  5  точное извлечение (доверие 1)  [A69E3E83]
Все треки извлечены точно
Конец отчёта
Правила, инструкции, FAQ!!!
Торрент  Добавлен [26 июн 2020, 17:24] Скачать торрент Магнет ссылка
Скачать торрент
[ Размер 11.74 КБ / Просмотров 10 ]

Статус
Проверен 
 
Размер  138.1 МБ
Приватный: Нет (DHT включён)
.torrent скачан  0
 


     Отправить личное сообщение
   
Страница 1 из 1
Показать сообщения за:  Поле сортировки  
Начать новую тему Ответить на тему


Сейчас этот форум просматривают: нет зарегистрированных пользователей и гости: 0


Вы не можете начинать темы
Вы не можете отвечать на сообщения
Вы не можете редактировать свои сообщения
Вы не можете удалять свои сообщения
Вы не можете добавлять вложения

Перейти:  
cron