Начать новую тему Ответить на тему
Статистика раздачи
Размер: 469.44 МБ | Добавлен: 26 июн 2020, 17:13 | Скачали: 0
Сидеров: 0  [0 байт/сек]    Личеров: 0  [0 байт/сек]
Пред. тема | След. тема 

Автор
Сообщение

СообщениеДобавлено: 26 июн 2020, 17:13 

Ответить с цитатой 

Allied Vision - Unburied
Жанр: EBM, Industrial, Experimental
Год выпуска диска: 1999
Производитель диска: Канада "Gashed!"
Аудио кодек: FLAC
Тип рипа: tracks+.cue
Битрейт аудио: lossless
Продолжительность: 01:09:08
Источник рипа: what.cd
Треклист:
01. All The Dead
02. Black Wizard
03. Madness Survival
04. Demon Sect
05. Spreader (Instrumental)
06. Lance Of Destiny
07. Cup Of Sorrow
08. Gravedigger
09. Unforgiven
10. Insane Gargoyle
11. Cup Of Sorrow (Frequency Remix)
Remix - Negative Format
12. Unforgiven (Fire Drill Mix)
Remix - Gridlock
13. All The Dead (Stripped Down Mix)
Remix - Aghast View
Exact Audio Copy V0.99 prebeta 4 from 23. January 2008
EAC extraction logfile from 19. September 2008, 23:15
Allied Vision / Unburied
Used drive : TSSTcorpDVD+-RW TS-H653B Adapter: 1 ID: 0
Read mode : Secure
Utilize accurate stream : Yes
Defeat audio cache : Yes
Make use of C2 pointers : No
Read offset correction : 6
Overread into Lead-In and Lead-Out : No
Fill up missing offset samples with silence : Yes
Delete leading and trailing silent blocks : No
Null samples used in CRC calculations : Yes
Used interface : Installed external ASPI interface
Gap handling : Appended to previous track
Used output format : User Defined Encoder
Selected bitrate : 192 kBit/s
Quality : High
Add ID3 tag : No
Command line compressor : C:\Program Files\Exact Audio Copy\Flac\flac.exe
Additional command line options : -V -8 -T "artist=%a" -T "title=%t" -T "album=%g" -T "date=%y" -T "tracknumber=%n" -T "genre=%m" %s
TOC of the extracted CD
Track | Start | Length | Start sector | End sector
---------------------------------------------------------
1 | 0:00.00 | 5:49.71 | 0 | 26245
2 | 5:49.71 | 6:04.07 | 26246 | 53552
3 | 11:54.03 | 6:49.52 | 53553 | 84279
4 | 18:43.55 | 4:57.33 | 84280 | 106587
5 | 23:41.13 | 6:15.45 | 106588 | 134757
6 | 29:56.58 | 5:22.64 | 134758 | 158971
7 | 35:19.47 | 4:27.45 | 158972 | 179041
8 | 39:47.17 | 5:54.65 | 179042 | 205656
9 | 45:42.07 | 5:40.57 | 205657 | 231213
10 | 51:22.64 | 5:36.56 | 231214 | 256469
11 | 56:59.45 | 4:53.14 | 256470 | 278458
12 | 61:52.59 | 4:34.55 | 278459 | 299063
13 | 66:27.39 | 5:28.38 | 299064 | 323701
Track 1
Filename C:\A\Allied Vision - Unburied [flac]\01 - All the Dead.wav
Pre-gap length 0:00:02.00
Peak level 100.0 %
Track quality 100.0 %
Test CRC 49885F93
Copy CRC 49885F93
Track not present in AccurateRip database
Copy OK
Track 2
Filename C:\A\Allied Vision - Unburied [flac]\02 - Black Wizard.wav
Peak level 100.0 %
Track quality 100.0 %
Test CRC 78028590
Copy CRC 78028590
Track not present in AccurateRip database
Copy OK
Track 3
Filename C:\A\Allied Vision - Unburied [flac]\03 - Madness Survival.wav
Pre-gap length 0:00:00.01
Peak level 100.0 %
Track quality 100.0 %
Test CRC BA7CABBC
Copy CRC BA7CABBC
Track not present in AccurateRip database
Copy OK
Track 4
Filename C:\A\Allied Vision - Unburied [flac]\04 - Demon Sect.wav
Peak level 99.3 %
Track quality 100.0 %
Test CRC 784C4201
Copy CRC 784C4201
Track not present in AccurateRip database
Copy OK
Track 5
Filename C:\A\Allied Vision - Unburied [flac]\05 - Spreader (Instrumental).wav
Pre-gap length 0:00:00.01
Peak level 100.0 %
Track quality 100.0 %
Test CRC 29C06BAB
Copy CRC 29C06BAB
Track not present in AccurateRip database
Copy OK
Track 6
Filename C:\A\Allied Vision - Unburied [flac]\06 - Lance of Destiny.wav
Peak level 97.0 %
Track quality 100.0 %
Test CRC E426154F
Copy CRC E426154F
Track not present in AccurateRip database
Copy OK
Track 7
Filename C:\A\Allied Vision - Unburied [flac]\07 - Cup of Sorrow.wav
Pre-gap length 0:00:00.01
Peak level 100.0 %
Track quality 100.0 %
Test CRC EBFB1A8F
Copy CRC EBFB1A8F
Track not present in AccurateRip database
Copy OK
Track 8
Filename C:\A\Allied Vision - Unburied [flac]\08 - Gravedigger.wav
Peak level 100.0 %
Track quality 100.0 %
Test CRC CD9D67AF
Copy CRC CD9D67AF
Track not present in AccurateRip database
Copy OK
Track 9
Filename C:\A\Allied Vision - Unburied [flac]\09 - Unforgiven.wav
Pre-gap length 0:00:00.01
Peak level 100.0 %
Track quality 100.0 %
Test CRC 9DF1AA35
Copy CRC 9DF1AA35
Track not present in AccurateRip database
Copy OK
Track 10
Filename C:\A\Allied Vision - Unburied [flac]\10 - Insane Gargoyle.wav
Pre-gap length 0:00:00.01
Peak level 100.0 %
Track quality 100.0 %
Test CRC B8F3CFF0
Copy CRC B8F3CFF0
Track not present in AccurateRip database
Copy OK
Track 11
Filename C:\A\Allied Vision - Unburied [flac]\11 - Cup of Sorrow (Frequencey Remix by Negative Format).wav
Pre-gap length 0:00:02.01
Peak level 100.0 %
Track quality 100.0 %
Test CRC C1EB2520
Copy CRC C1EB2520
Track not present in AccurateRip database
Copy OK
Track 12
Filename C:\A\Allied Vision - Unburied [flac]\12 - Unforgiven (Fire Drill Mix by Gridlock).wav
Pre-gap length 0:00:02.00
Peak level 100.0 %
Track quality 100.0 %
Test CRC 04990CD0
Copy CRC 04990CD0
Track not present in AccurateRip database
Copy OK
Track 13
Filename C:\A\Allied Vision - Unburied [flac]\13 - All the Dead (Stripped Down Mix by Aghast View).wav
Pre-gap length 0:00:01.01
Peak level 100.0 %
Track quality 100.0 %
Test CRC E99AFC0A
Copy CRC E99AFC0A
Track not present in AccurateRip database
Copy OK
None of the tracks are present in the AccurateRip database
No errors occurred
End of status report
AUDIOCHECKER v2.0 beta (build 457) - by Dester - opdester@freemail.hu
~~~~~~~~~~~~~~~~~~~~~~~~~~~~~~~~~~
-=== DO NOT EDIT THIS FILE! ===-
Path: ...\Allied Vision - Unburied [flac]
001 -=- 01 - All the Dead.flac -=- CDDA (100%)
002 -=- 02 - Black Wizard.flac -=- CDDA (100%)
003 -=- 03 - Madness Survival.flac -=- CDDA (100%)
004 -=- 04 - Demon Sect.flac -=- CDDA (100%)
005 -=- 05 - Spreader (Instrumental).flac -=- CDDA (100%)
006 -=- 06 - Lance of Destiny.flac -=- CDDA (100%)
007 -=- 07 - Cup of Sorrow.flac -=- CDDA (100%)
008 -=- 08 - Gravedigger.flac -=- CDDA (100%)
009 -=- 09 - Unforgiven.flac -=- CDDA (100%)
010 -=- 10 - Insane Gargoyle.flac -=- CDDA (100%)
011 -=- 11 - Cup of Sorrow (Frequencey Remix by Negative Format).flac -=- CDDA (100%)
012 -=- 12 - Unforgiven (Fire Drill Mix by Gridlock).flac -=- CDDA (100%)
013 -=- 13 - All the Dead (Stripped Down Mix by Aghast View).flac -=- CDDA (100%)
Summary 100,00% CDDA
106798020
Доп. информация: ALLIED VISION это "группа" состоящая всего из одного человека и базирующаяся в Испании. Довольно быстрая и ритмичная музыка альбома может быть определена как dark-electro, а точнее horror-hellectro - стилистическая линия, которая так детально разработанна такими коллективами, как YELWORC и AMGOD, в свою очередь вдохновляемыми творчеством Лавкрафта, Баркера, Арженто... Пульсирующие ритмы, зловещий скрежещущий вокал, комплексные сэмплы, где сливаются вопли ужаса, колдовские заклинания и бормотания, стоны и проклятия, потусторонние низкочастотные гулы, нагнетают атмосферу фатального ужаса. При всей своей энергичности, звучание завораживающе вкрадчиво, оно словно затягивает в липкую паутину ночных кошмаров, необъяснимых и совершенно иррациональных, и от этого еще более жутких.
Для многих людей словосочетание "электронная музыка" является чуть ли не синонимом "танцевальная- / поп-музыка" - какое заблуждение! Не вдаваясь в эмбиент-абстракции или экстремальную нойзовую "чернуху" ALLIED VISION убедительно демонстрирует "темную сторону Силы" электронного звучания.
Источник рецензии
Правила, инструкции, FAQ!!!
Торрент  Добавлен [26 июн 2020, 17:13] Скачать торрент Магнет ссылка
Скачать торрент
[ Размер 10.59 КБ / Просмотров 3 ]

Статус
Проверен 
 
Размер  469.44 МБ
Приватный: Нет (DHT включён)
.torrent скачан  0
 


     Отправить личное сообщение
   
Страница 1 из 1
Показать сообщения за:  Поле сортировки  
Начать новую тему Ответить на тему


Сейчас этот форум просматривают: нет зарегистрированных пользователей и гости: 0


Вы не можете начинать темы
Вы не можете отвечать на сообщения
Вы не можете редактировать свои сообщения
Вы не можете удалять свои сообщения
Вы не можете добавлять вложения

Перейти:  
cron