Начать новую тему Ответить на тему
Статистика раздачи
Размер: 533.55 МБ | Добавлен: 26 июн 2020, 16:56 | Скачали: 0
Сидеров: 0  [0 байт/сек]    Личеров: 0  [0 байт/сек]
Пред. тема | След. тема 

Автор
Сообщение

СообщениеДобавлено: 26 июн 2020, 16:56 

Ответить с цитатой 

T.W.Z. / Evolution
Жанр: EBM, Industrial
Страна-производитель диска: Hungary
Год издания диска: 2008
Издатель (лейбл): Advoxya
Номер по каталогу: ad-hun-21-cd
Страна: Hungary
Аудио кодек: FLAC (*.flac)
Тип рипа: tracks+.cue
Битрейт аудио: lossless
Продолжительность: 67:35
Источник (релизер): Рип с личного CD
Наличие сканов в содержимом раздачи: да
Треклист:
1 The Time In This Corridor Is Not As It Should Be 2:39
2 Souljourner 4:29
3 The Grid 4:54
4 Rubicon 4:05
5 Shut Up And Suffer 5:00
6 Flawed, Weak And Organic 5:15
7 Vengeance 5:13
8 Irrevelance 4:07
9 Evolution 6:16
10 My Friend Disorder 6:28
11 Crawling 5:15
12 Clairvoyance 4:46
13 We Don't Walk The Same Path 5:07
14 Confession 4:01
Код:
Exact Audio Copy V0.99 prebeta 5 from 4. May 2009
EAC extraction logfile from 3. November 2010, 1:16
T.W.Z. / Evolution
Used drive  : PIONEER DVD-RW  DVR-216D   Adapter: 0  ID: 0
Read mode               : Secure
Utilize accurate stream : Yes
Defeat audio cache      : Yes
Make use of C2 pointers : No
Read offset correction                      : 96
Overread into Lead-In and Lead-Out          : No
Fill up missing offset samples with silence : Yes
Delete leading and trailing silent blocks   : No
Null samples used in CRC calculations       : Yes
Used interface                              : Native Win32 interface for Win NT & 2000
Gap handling                                : Appended to previous track
Used output format              : User Defined Encoder
Selected bitrate                : 1024 kBit/s
Quality                         : High
Add ID3 tag                     : No
Command line compressor         : C:\Program Files (x86)\Exact Audio Copy\Flac\flac.exe
Additional command line options : -8 -V -T "ARTIST=%a" -T "TITLE=%t" -T "ALBUM=%g" -T "DATE=%y" -T "TRACKNUMBER=%n" -T "GENRE=%m" -T "COMMENT=EAC FLAC -8" %s
TOC of the extracted CD
     Track |   Start  |  Length  | Start sector | End sector
    ---------------------------------------------------------
        1  |  0:00.00 |  2:39.30 |         0    |    11954
        2  |  2:39.30 |  4:28.69 |     11955    |    32123
        3  |  7:08.24 |  4:54.13 |     32124    |    54186
        4  | 12:02.37 |  4:04.67 |     54187    |    72553
        5  | 16:07.29 |  5:00.00 |     72554    |    95053
        6  | 21:07.29 |  5:15.05 |     95054    |   118683
        7  | 26:22.34 |  5:13.16 |    118684    |   142174
        8  | 31:35.50 |  4:06.74 |    142175    |   160698
        9  | 35:42.49 |  6:16.00 |    160699    |   188898
       10  | 41:58.49 |  6:27.38 |    188899    |   217961
       11  | 48:26.12 |  5:14.45 |    217962    |   241556
       12  | 53:40.57 |  4:45.57 |    241557    |   262988
       13  | 58:26.39 |  5:07.08 |    262989    |   286021
       14  | 63:33.47 |  4:01.22 |    286022    |   304118
Track  1
     Filename I:\Audio\TORRENTS\T.W.Z\T.W.Z. - Evolution\Tracks\ 01. T.W.Z. – The Time In This Corridor Is Not As It Should Be.wav
     Pre-gap length  0:00:02.00
     Peak level 82.4 %
     Track quality 99.9 %
     Test CRC E9F0EB02
     Copy CRC E9F0EB02
     Track not present in AccurateRip database
     Copy OK
Track  2
     Filename I:\Audio\TORRENTS\T.W.Z\T.W.Z. - Evolution\Tracks\ 02. T.W.Z. – Souljourner.wav
     Pre-gap length  0:00:01.00
     Peak level 83.8 %
     Track quality 100.0 %
     Test CRC 48A385D4
     Copy CRC 48A385D4
     Track not present in AccurateRip database
     Copy OK
Track  3
     Filename I:\Audio\TORRENTS\T.W.Z\T.W.Z. - Evolution\Tracks\ 03. T.W.Z. – The Grid.wav
     Pre-gap length  0:00:01.00
     Peak level 83.8 %
     Track quality 99.9 %
     Test CRC 2B027EFE
     Copy CRC 2B027EFE
     Track not present in AccurateRip database
     Copy OK
Track  4
     Filename I:\Audio\TORRENTS\T.W.Z\T.W.Z. - Evolution\Tracks\ 04. T.W.Z. – Rubicon.wav
     Pre-gap length  0:00:01.00
     Peak level 83.8 %
     Track quality 100.0 %
     Test CRC 8F745960
     Copy CRC 8F745960
     Track not present in AccurateRip database
     Copy OK
Track  5
     Filename I:\Audio\TORRENTS\T.W.Z\T.W.Z. - Evolution\Tracks\ 05. T.W.Z. – Shut Up And Suffer.wav
     Pre-gap length  0:00:01.00
     Peak level 83.8 %
     Track quality 100.0 %
     Test CRC 278808B2
     Copy CRC 278808B2
     Track not present in AccurateRip database
     Copy OK
Track  6
     Filename I:\Audio\TORRENTS\T.W.Z\T.W.Z. - Evolution\Tracks\ 06. T.W.Z. – Flawed, Weak And Organic.wav
     Pre-gap length  0:00:01.00
     Peak level 83.8 %
     Track quality 100.0 %
     Test CRC 9D82697E
     Copy CRC 9D82697E
     Track not present in AccurateRip database
     Copy OK
Track  7
     Filename I:\Audio\TORRENTS\T.W.Z\T.W.Z. - Evolution\Tracks\ 07. T.W.Z. – Vengeance.wav
     Pre-gap length  0:00:01.00
     Peak level 83.8 %
     Track quality 100.0 %
     Test CRC 7EE405CE
     Copy CRC 7EE405CE
     Track not present in AccurateRip database
     Copy OK
Track  8
     Filename I:\Audio\TORRENTS\T.W.Z\T.W.Z. - Evolution\Tracks\ 08. T.W.Z. – Irrelevance.wav
     Pre-gap length  0:00:01.00
     Peak level 83.8 %
     Track quality 100.0 %
     Test CRC 43A9807B
     Copy CRC 43A9807B
     Track not present in AccurateRip database
     Copy OK
Track  9
     Filename I:\Audio\TORRENTS\T.W.Z\T.W.Z. - Evolution\Tracks\ 09. T.W.Z. – Evolution.wav
     Pre-gap length  0:00:01.00
     Peak level 83.8 %
     Track quality 100.0 %
     Test CRC F8A07805
     Copy CRC F8A07805
     Track not present in AccurateRip database
     Copy OK
Track 10
     Filename I:\Audio\TORRENTS\T.W.Z\T.W.Z. - Evolution\Tracks\ 10. T.W.Z. – My Friend Disorder.wav
     Pre-gap length  0:00:01.00
     Peak level 83.8 %
     Track quality 99.9 %
     Test CRC C9F8FDB1
     Copy CRC C9F8FDB1
     Track not present in AccurateRip database
     Copy OK
Track 11
     Filename I:\Audio\TORRENTS\T.W.Z\T.W.Z. - Evolution\Tracks\ 11. T.W.Z. – Crawling.wav
     Pre-gap length  0:00:01.00
     Peak level 83.8 %
     Track quality 100.0 %
     Test CRC B97761EF
     Copy CRC B97761EF
     Track not present in AccurateRip database
     Copy OK
Track 12
     Filename I:\Audio\TORRENTS\T.W.Z\T.W.Z. - Evolution\Tracks\ 12. T.W.Z. – Clairvoyance.wav
     Peak level 83.8 %
     Track quality 100.0 %
     Test CRC 7595AC92
     Copy CRC 7595AC92
     Track not present in AccurateRip database
     Copy OK
Track 13
     Filename I:\Audio\TORRENTS\T.W.Z\T.W.Z. - Evolution\Tracks\ 13. T.W.Z. – We Don't Walk The Same Path.wav
     Pre-gap length  0:00:01.00
     Peak level 83.8 %
     Track quality 100.0 %
     Test CRC 9AFB9D36
     Copy CRC 9AFB9D36
     Track not present in AccurateRip database
     Copy OK
Track 14
     Filename I:\Audio\TORRENTS\T.W.Z\T.W.Z. - Evolution\Tracks\ 14. T.W.Z. – Confession.wav
     Peak level 48.8 %
     Track quality 99.9 %
     Test CRC 09701F58
     Copy CRC 09701F58
     Track not present in AccurateRip database
     Copy OK
None of the tracks are present in the AccurateRip database
No errors occurred
End of status report
Код:
REM GENRE Electronic
REM DATE 2008
REM DISCID C40FD60E
REM COMMENT "ExactAudioCopy v0.99pb5"
PERFORMER "T.W.Z."
TITLE "Evolution"
FILE " 01. T.W.Z. – The Time In This Corridor Is Not As It Should Be.wav" WAVE
  TRACK 01 AUDIO
    TITLE "The Time In This Corridor Is Not As It Should Be"
    PERFORMER "T.W.Z."
    FLAGS DCP
    INDEX 01 00:00:00
  TRACK 02 AUDIO
    TITLE "Souljourner"
    PERFORMER "T.W.Z."
    FLAGS DCP
    INDEX 00 02:38:30
FILE " 02. T.W.Z. – Souljourner.wav" WAVE
    INDEX 01 00:00:00
  TRACK 03 AUDIO
    TITLE "The Grid"
    PERFORMER "T.W.Z."
    FLAGS DCP
    INDEX 00 04:27:69
FILE " 03. T.W.Z. – The Grid.wav" WAVE
    INDEX 01 00:00:00
  TRACK 04 AUDIO
    TITLE "Rubicon"
    PERFORMER "T.W.Z."
    FLAGS DCP
    INDEX 00 04:53:13
FILE " 04. T.W.Z. – Rubicon.wav" WAVE
    INDEX 01 00:00:00
  TRACK 05 AUDIO
    TITLE "Shut Up And Suffer"
    PERFORMER "T.W.Z."
    FLAGS DCP
    INDEX 00 04:03:67
FILE " 05. T.W.Z. – Shut Up And Suffer.wav" WAVE
    INDEX 01 00:00:00
  TRACK 06 AUDIO
    TITLE "Flawed, Weak And Organic"
    PERFORMER "T.W.Z."
    FLAGS DCP
    INDEX 00 04:59:00
FILE " 06. T.W.Z. – Flawed, Weak And Organic.wav" WAVE
    INDEX 01 00:00:00
  TRACK 07 AUDIO
    TITLE "Vengeance"
    PERFORMER "T.W.Z."
    FLAGS DCP
    INDEX 00 05:14:05
FILE " 07. T.W.Z. – Vengeance.wav" WAVE
    INDEX 01 00:00:00
  TRACK 08 AUDIO
    TITLE "Irrelevance"
    PERFORMER "T.W.Z."
    FLAGS DCP
    INDEX 00 05:12:16
FILE " 08. T.W.Z. – Irrelevance.wav" WAVE
    INDEX 01 00:00:00
  TRACK 09 AUDIO
    TITLE "Evolution"
    PERFORMER "T.W.Z."
    FLAGS DCP
    INDEX 00 04:05:74
FILE " 09. T.W.Z. – Evolution.wav" WAVE
    INDEX 01 00:00:00
  TRACK 10 AUDIO
    TITLE "My Friend Disorder"
    PERFORMER "T.W.Z."
    FLAGS DCP
    INDEX 00 06:15:00
FILE " 10. T.W.Z. – My Friend Disorder.wav" WAVE
    INDEX 01 00:00:00
  TRACK 11 AUDIO
    TITLE "Crawling"
    PERFORMER "T.W.Z."
    FLAGS DCP
    INDEX 00 06:26:38
FILE " 11. T.W.Z. – Crawling.wav" WAVE
    INDEX 01 00:00:00
FILE " 12. T.W.Z. – Clairvoyance.wav" WAVE
  TRACK 12 AUDIO
    TITLE "Clairvoyance"
    PERFORMER "T.W.Z."
    FLAGS DCP
    INDEX 01 00:00:00
  TRACK 13 AUDIO
    TITLE "We Don't Walk The Same Path"
    PERFORMER "T.W.Z."
    FLAGS DCP
    INDEX 00 04:44:57
FILE " 13. T.W.Z. – We Don't Walk The Same Path.wav" WAVE
    INDEX 01 00:00:00
FILE " 14. T.W.Z. – Confession.wav" WAVE
  TRACK 14 AUDIO
    TITLE "Confession"
    PERFORMER "T.W.Z."
    FLAGS DCP
    INDEX 01 00:00:00
Код:
Started at: среда, 03. 11. 2010. - 0:08.51
14 files found
01 -===- track 1 in drive PIONEER DVD-RW  DVR-216D
  Track ripped successfully
  Conclusion: this track is CDDA with probability 100%
  Tempfile successfully deleted.
02 -===- track 2 in drive PIONEER DVD-RW  DVR-216D
  Track ripped successfully
  Conclusion: this track is CDDA with probability 100%
  Tempfile successfully deleted.
03 -===- track 3 in drive PIONEER DVD-RW  DVR-216D
  Track ripped successfully
  Conclusion: this track is CDDA with probability 100%
  Tempfile successfully deleted.
04 -===- track 4 in drive PIONEER DVD-RW  DVR-216D
  Track ripped successfully
  Conclusion: this track is CDDA with probability 100%
  Tempfile successfully deleted.
05 -===- track 5 in drive PIONEER DVD-RW  DVR-216D
  Track ripped successfully
  Conclusion: this track is CDDA with probability 100%
  Tempfile successfully deleted.
06 -===- track 6 in drive PIONEER DVD-RW  DVR-216D
  Track ripped successfully
  Conclusion: this track is CDDA with probability 100%
  Tempfile successfully deleted.
07 -===- track 7 in drive PIONEER DVD-RW  DVR-216D
  Track ripped successfully
  Conclusion: this track is CDDA with probability 100%
  Tempfile successfully deleted.
08 -===- track 8 in drive PIONEER DVD-RW  DVR-216D
  Track ripped successfully
  Conclusion: this track is CDDA with probability 100%
  Tempfile successfully deleted.
09 -===- track 9 in drive PIONEER DVD-RW  DVR-216D
  Track ripped successfully
  Conclusion: this track is CDDA with probability 100%
  Tempfile successfully deleted.
10 -===- track 10 in drive PIONEER DVD-RW  DVR-216D
  Track ripped successfully
  Conclusion: this track is CDDA with probability 99%
  Tempfile successfully deleted.
11 -===- track 11 in drive PIONEER DVD-RW  DVR-216D
  Track ripped successfully
  Conclusion: this track is CDDA with probability 100%
  Tempfile successfully deleted.
12 -===- track 12 in drive PIONEER DVD-RW  DVR-216D
  Track ripped successfully
  Conclusion: this track is CDDA with probability 99%
  Tempfile successfully deleted.
13 -===- track 13 in drive PIONEER DVD-RW  DVR-216D
  Track ripped successfully
  Conclusion: this track is CDDA with probability 100%
  Tempfile successfully deleted.
14 -===- track 14 in drive PIONEER DVD-RW  DVR-216D
  Track ripped successfully
  Conclusion: this track is CDDA with probability 100%
  Tempfile successfully deleted.
Finished at: среда, 03. 11. 2010. - 0:18.59 (operation time: 0:10.08)


Доп. информация: http://twz.oblivioncreations.se/
http://www.discogs.com/TWZ-Evolution/release/1373815
T.W.Z. was founded in 2003, spreading religious and mythical words and playing industrial/E.B.M. with ambient parts. The primary concept is Timewave Zero. Most of the songs discuss this subject but in overall the songs are not bound to a specific ideology, rather a category which can best be described as anti-humanistic.
Правила, инструкции, FAQ!!!
Торрент  Добавлен [26 июн 2020, 16:56] Скачать торрент Магнет ссылка
Скачать торрент
[ Размер 12.97 КБ / Просмотров 6 ]

Статус
Проверен 
 
Размер  533.55 МБ
Приватный: Нет (DHT включён)
.torrent скачан  0
 


     Отправить личное сообщение
   
Страница 1 из 1
Показать сообщения за:  Поле сортировки  
Начать новую тему Ответить на тему


Сейчас этот форум просматривают: нет зарегистрированных пользователей и гости: 0


Вы не можете начинать темы
Вы не можете отвечать на сообщения
Вы не можете редактировать свои сообщения
Вы не можете удалять свои сообщения
Вы не можете добавлять вложения

Перейти:  
cron