Начать новую тему Ответить на тему
Статистика раздачи
Размер: 369.79 МБ | Добавлен: 26 июн 2020, 19:03 | Скачали: 0
Сидеров: 0  [0 байт/сек]    Личеров: 0  [0 байт/сек]
Пред. тема | След. тема 

Автор
Сообщение

СообщениеДобавлено: 26 июн 2020, 19:03 

Ответить с цитатой 

Eurocide - Regen Aus Asche
Жанр: EBM industrial
Год выпуска диска: 2009
Производитель диска: (Remote Music, Germany)
Аудио кодек: FLAC
Тип рипа: image+.cue
Битрейт аудио: lossless
Продолжительность: 46:51.42
Треклист:
01. Fallen Nations [4:41]
02. Der Tag (An Dem Es Geschah) [3:36]
03. In The Darkness [3:46]
04. Im Lager Des Feindes [3:50]
05. Vergeltung [4:10]
06. Human Resource [3:31]
07. Assassination [3:21]
08. Shelter Run [3:47]
09. The Eurocide (Total Ahhihilated) [3:23]
10. Das Soll Werden! (Handwercher Visions Part 1) [4:20]
11. Inside Our Fate [3:51]
12. The Hideaway [4:37]
Источник: Физический носитель
Код:
Exact Audio Copy V0.99 prebeta 5 from 4. May 2009
Отчёт EAC об извлечении, выполненном 16. июля 2010, 11:09
Eurocide / Regen Aus Asche
Дисковод: Optiarc DVD RW AD-7173A   Adapter: 0  ID: 0
Режим чтения                 : Достоверность
Использование точного потока : Да
Отключение кэша аудио        : Да
Использование указателей C2  : Нет
Коррекция смещения при чтении                     : 48
Способность читать области Lead-in и Lead-out     : Нет
Заполнение пропущенных сэмплов тишиной            : Да
Удаление блоков с тишиной в начале и конце        : Нет
При вычислениях CRC использовались нулевые сэмплы : Да
Интерфейс                                         : Установленный внешний ASPI-интерфейс
Выходной формат          : Пользовательский кодировщик
Выбранный битрейт        : 1024 kBit/s
Качество                 : Высокий
Добавление ID3-тэга      : Нет
Утилита сжатия           : C:\Program Files\Exact Audio Copy\flac.exe
Дополнительные параметры : -6 -V -T "ARTIST=%a" -T "TITLE=%t" -T "ALBUM=%g" -T "DATE=%y" -T "TRACKNUMBER=%n" -T "GENRE=%m" -T "COMMENT=%e" %s -o %d
TOC извлечённого CD
     Трек |   Старт  | Длительность | Начальный сектор | Конечный сектор
    ---------------------------------------------------------------------
       1  |  0:00.00 |    4:41.03   |           0      |      21077
       2  |  4:41.03 |    3:35.51   |       21078      |      37253
       3  |  8:16.54 |    3:46.34   |       37254      |      54237
       4  | 12:03.13 |    3:49.50   |       54238      |      71462
       5  | 15:52.63 |    4:09.74   |       71463      |      90211
       6  | 20:02.62 |    3:30.66   |       90212      |     106027
       7  | 23:33.53 |    3:20.56   |      106028      |     121083
       8  | 26:54.34 |    3:46.56   |      121084      |     138089
       9  | 30:41.15 |    3:22.51   |      138090      |     153290
      10  | 34:03.66 |    4:19.45   |      153291      |     172760
      11  | 38:23.36 |    3:50.70   |      172761      |     190080
      12  | 42:14.31 |    4:37.11   |      190081      |     210866
Характеристики диапазона извлечения и сообщения об ошибках
Выбранный диапазон
     Имя файла H:\СКАЧКА\FLAC\1 TORRENT\Eurocide - Regen Aus Asche.wav
     Пиковый уровень 99.2 %
     Качество диапазона 99.9 %
     CRC теста BD9B5C14
     CRC копии BD9B5C14
     Копирование... OK
Ошибок не произошло
AccurateRip: сводка
Трек  1  нет в базе данных
Трек  2  нет в базе данных
Трек  3  нет в базе данных
Трек  4  нет в базе данных
Трек  5  нет в базе данных
Трек  6  нет в базе данных
Трек  7  нет в базе данных
Трек  8  нет в базе данных
Трек  9  нет в базе данных
Трек 10  нет в базе данных
Трек 11  нет в базе данных
Трек 12  нет в базе данных
Ни одного трека нет в базе AccurateRip
Конец отчёта
Хочешь скачать, но не можешь из-за отсутствия сидов - пиши в личку!
Правила, инструкции, FAQ!!!
Торрент  Добавлен [26 июн 2020, 19:03] Скачать торрент Магнет ссылка
Скачать торрент
[ Размер 15.36 КБ / Просмотров 13 ]

Статус
Проверен 
 
Размер  369.79 МБ
Приватный: Нет (DHT включён)
.torrent скачан  0
 


     Отправить личное сообщение
   
Страница 1 из 1
Показать сообщения за:  Поле сортировки  
Начать новую тему Ответить на тему


Сейчас этот форум просматривают: нет зарегистрированных пользователей и гости: 0


Вы не можете начинать темы
Вы не можете отвечать на сообщения
Вы не можете редактировать свои сообщения
Вы не можете удалять свои сообщения
Вы не можете добавлять вложения

Перейти:  
cron