Начать новую тему Ответить на тему
Статистика раздачи
Размер: 396.16 МБ | Добавлен: 26 июн 2020, 19:03 | Скачали: 0
Сидеров: 0  [0 байт/сек]    Личеров: 0  [0 байт/сек]
Пред. тема | След. тема 

Автор
Сообщение

СообщениеДобавлено: 26 июн 2020, 19:03 

Ответить с цитатой 

Eurocide / Europe In Dust
Жанр: EBM industrial
Страна-производитель диска: Switzerland
Год издания диска: 2004
Издатель (лейбл): T.D.M Thunderdome
Номер по каталогу: T:D:M 40111-8800-7
Аудиокодек: FLAC (*.flac)
Тип рипа: image+.cue
Битрейт аудио: lossless
Продолжительность: 53:37.18
Источник (релизер): получено по обмену (oflasen1)
Наличие сканов в содержимом раздачи: да
Треклист:
01. Blood Over The Red Desert [3:50]
02. Europe In Dust [3:21]
03. The Gate Of Tears [3:32]
04. Biomechanik V4.1 [4:30]
05. Patriot(ic) Act (FBI, CIA,...) [3:47]
06. Infowar (Chemical Milk mix) [2:59]
07. Vault 13 [6:36]
08. Destiny Falling 2003 [5:48]
09. Drei Tage Finsternis [7:41]
10. Elysium [5:05]
11. Fall Of Elysium [2:13]
12. Der Schrei [bonus track] [4:13]
Код:
Exact Audio Copy V0.99 prebeta 5 from 4. May 2009
EAC extraction logfile from 16. October 2011, 17:28
Eurocide / Europe in Dust
Used drive  : Optiarc DVD RW AD-7261S   Adapter: 0  ID: 2
Read mode               : Secure
Utilize accurate stream : Yes
Defeat audio cache      : Yes
Make use of C2 pointers : No
Read offset correction                      : 48
Overread into Lead-In and Lead-Out          : No
Fill up missing offset samples with silence : Yes
Delete leading and trailing silent blocks   : No
Null samples used in CRC calculations       : Yes
Used interface                              : Installed external ASPI interface
Used output format              : User Defined Encoder
Selected bitrate                : 192 kBit/s
Quality                         : High
Add ID3 tag                     : No
Command line compressor         : C:\Program Files\Exact Audio Copy\FLAC\FLAC.EXE
Additional command line options : -8 -V %s
TOC of the extracted CD
     Track |   Start  |  Length  | Start sector | End sector
    ---------------------------------------------------------
        1  |  0:00.00 |  3:50.30 |         0    |    17279
        2  |  3:50.30 |  3:20.60 |     17280    |    32339
        3  |  7:11.15 |  3:31.44 |     32340    |    48208
        4  | 10:42.59 |  4:30.30 |     48209    |    68488
        5  | 15:13.14 |  3:47.04 |     68489    |    85517
        6  | 19:00.18 |  2:59.28 |     85518    |    98970
        7  | 21:59.46 |  6:36.02 |     98971    |   128672
        8  | 28:35.48 |  5:48.35 |    128673    |   154807
        9  | 34:24.08 |  7:41.11 |    154808    |   189393
       10  | 42:05.19 |  5:05.33 |    189394    |   212301
       11  | 47:10.52 |  2:13.23 |    212302    |   222299
       12  | 49:24.00 |  4:13.18 |    222300    |   241292
Range status and errors
Selected range
     Filename I:\IMAGE\Eurocide - Europe In Dust - 2004\Eurocide - Europe in Dust.wav
     Peak level 99.3 %
     Range quality 100.0 %
     Test CRC C2C3B236
     Copy CRC C2C3B236
     Copy OK
No errors occurred
AccurateRip summary
Track  1  not present in database
Track  2  cannot be verified as accurate (confidence 1)  [4F6EB70E], AccurateRip returned [F3998D6E]
Track  3  not present in database
Track  4  not present in database
Track  5  not present in database
Track  6  not present in database
Track  7  not present in database
Track  8  not present in database
Track  9  not present in database
Track 10  not present in database
Track 11  not present in database
Track 12  not present in database
 1 track(s) could not be verified as accurate
11 track(s) not present in the AccurateRip database
No tracks could be verified as accurate
You may have a different pressing from the one(s) in the database
End of status report
Выражаю огромную благодарность за предоставленный рип oflasen1
Правила, инструкции, FAQ!!!
Торрент  Добавлен [26 июн 2020, 19:03] Скачать торрент Магнет ссылка
Скачать торрент
[ Размер 16.43 КБ / Просмотров 4 ]

Статус
Проверен 
 
Размер  396.16 МБ
Приватный: Нет (DHT включён)
.torrent скачан  0
 


     Отправить личное сообщение
   
Страница 1 из 1
Показать сообщения за:  Поле сортировки  
Начать новую тему Ответить на тему


Сейчас этот форум просматривают: нет зарегистрированных пользователей и гости: 0


Вы не можете начинать темы
Вы не можете отвечать на сообщения
Вы не можете редактировать свои сообщения
Вы не можете удалять свои сообщения
Вы не можете добавлять вложения

Перейти:  
cron