Начать новую тему Ответить на тему
Статистика раздачи
Размер: 865.41 МБ | Добавлен: 26 июн 2020, 20:25 | Скачали: 0
Сидеров: 0  [0 байт/сек]    Личеров: 0  [0 байт/сек]
Пред. тема | След. тема 

Автор
Сообщение

СообщениеДобавлено: 26 июн 2020, 20:25 

Ответить с цитатой 

Essence Of Mind / Insurrection [Limited Edition]
Жанр: EBM industrial
Страна-производитель диска: Belgium
Год издания диска: 2008
Издатель (лейбл): Alfa Matrix
Номер по каталогу: AM115CD
Аудио кодек: FLAC (*.flac)
Тип рипа: image+.cue
Битрейт аудио: lossless
Продолжительность Disc1: 56:01.37;
Продолжительность Disc2: 51:04.62
Источник (релизер): Физический носитель
Наличие сканов в содержимом раздачи: да
Треклист:
Disc1 - Insurrection
01. Here To Play [5:15]
02. Piss Artist [5:01]
03. Original Poser [5:26]
04. My Time [3:48]
05. Crime Of Life [3:35]
06. Friction [3:07]
07. Fake [5:43]
08. Wasted [3:33]
09. The Game [4:16]
10. Queued Up [3:50]
11. Deadheroes [4:04]
12. Flayed Principle [4:12]
13. Push It Back [4:11]
Disc2 - Different
01. Different [4:59]
02. Piss Artist (Bariuz mix) [6:29]
03. Queued Up (Crisk. mix) [4:19]
04. Crime Of Life (Elec This! mix) [3:04]
05. Deadheroes (Diffuzion mix) [4:13]
06. Wasted (Implant mix) [3:28]
07. My Time (Red 7 Electronic Assault mix) [4:57]
08. Crime Of Life (Autodafeh mix) [3:37]
09. Fake (Diskonnekted mix) [6:10]
10. Original Poser (Mind:State mix) [4:38]
11. Different (Tenseclubmix by Direction North) [5:10]
Код:
Exact Audio Copy V0.99 prebeta 5 from 4. May 2009
Отчёт EAC об извлечении, выполненном 19. декабря 2010, 14:06
Essence Of Mind / Insurrection
Дисковод: Optiarc DVD RW AD-7173A   Adapter: 0  ID: 0
Режим чтения                 : Достоверность
Использование точного потока : Да
Отключение кэша аудио        : Да
Использование указателей C2  : Нет
Коррекция смещения при чтении                     : 48
Способность читать области Lead-in и Lead-out     : Нет
Заполнение пропущенных сэмплов тишиной            : Да
Удаление блоков с тишиной в начале и конце        : Нет
При вычислениях CRC использовались нулевые сэмплы : Да
Интерфейс                                         : Установленный внешний ASPI-интерфейс
Выходной формат          : Пользовательский кодировщик
Выбранный битрейт        : 1024 kBit/s
Качество                 : Высокий
Добавление ID3-тэга      : Нет
Утилита сжатия           : C:\Program Files\Exact Audio Copy\flac.exe
Дополнительные параметры : -6 -V -T "ARTIST=%a" -T "TITLE=%t" -T "ALBUM=%g" -T "DATE=%y" -T "TRACKNUMBER=%n" -T "GENRE=%m" -T "COMMENT=%e" %s -o %d
TOC извлечённого CD
     Трек |   Старт  | Длительность | Начальный сектор | Конечный сектор
    ---------------------------------------------------------------------
       1  |  0:00.00 |    5:14.52   |           0      |      23601
       2  |  5:14.52 |    5:01.07   |       23602      |      46183
       3  | 10:15.59 |    5:25.61   |       46184      |      70619
       4  | 15:41.45 |    3:48.19   |       70620      |      87738
       5  | 19:29.64 |    3:34.45   |       87739      |     103833
       6  | 23:04.34 |    3:07.23   |      103834      |     117881
       7  | 26:11.57 |    5:43.14   |      117882      |     143620
       8  | 31:54.71 |    3:32.69   |      143621      |     159589
       9  | 35:27.65 |    4:15.71   |      159590      |     178785
      10  | 39:43.61 |    3:50.18   |      178786      |     196053
      11  | 43:34.04 |    4:04.31   |      196054      |     214384
      12  | 47:38.35 |    4:11.49   |      214385      |     233258
      13  | 51:50.09 |    4:11.28   |      233259      |     252111
Характеристики диапазона извлечения и сообщения об ошибках
Выбранный диапазон
     Имя файла H:\СКАЧКА\FLAC\1 TORRENT\Essence Of Mind - Insurrection.wav
     Пиковый уровень 100.0 %
     Качество диапазона 99.9 %
     CRC теста 2FED6BB3
     CRC копии 2FED6BB3
     Копирование... OK
Ошибок не произошло
AccurateRip: сводка
Трек  1  точное извлечение (доверие 3)  [422C8C6A]
Трек  2  точное извлечение (доверие 3)  [1EB2B23D]
Трек  3  точное извлечение (доверие 3)  [236A1D9F]
Трек  4  точное извлечение (доверие 3)  [3A19148C]
Трек  5  точное извлечение (доверие 3)  [44E235D5]
Трек  6  точное извлечение (доверие 3)  [E2F293D1]
Трек  7  точное извлечение (доверие 3)  [CAC83C6C]
Трек  8  точное извлечение (доверие 3)  [E5ED6DBB]
Трек  9  точное извлечение (доверие 3)  [54452866]
Трек 10  точное извлечение (доверие 3)  [8F944D33]
Трек 11  точное извлечение (доверие 3)  [5062349B]
Трек 12  точное извлечение (доверие 3)  [DCF6D1D6]
Трек 13  точное извлечение (доверие 3)  [6CEA6DDE]
Все треки извлечены точно
Конец отчёта
Код:
Exact Audio Copy V0.99 prebeta 5 from 4. May 2009
Отчёт EAC об извлечении, выполненном 19. декабря 2010, 15:52
Essence Of Mind / Insurrection
Дисковод: Optiarc DVD RW AD-7173A   Adapter: 0  ID: 0
Режим чтения                 : Достоверность
Использование точного потока : Да
Отключение кэша аудио        : Да
Использование указателей C2  : Нет
Коррекция смещения при чтении                     : 48
Способность читать области Lead-in и Lead-out     : Нет
Заполнение пропущенных сэмплов тишиной            : Да
Удаление блоков с тишиной в начале и конце        : Нет
При вычислениях CRC использовались нулевые сэмплы : Да
Интерфейс                                         : Установленный внешний ASPI-интерфейс
Выходной формат          : Пользовательский кодировщик
Выбранный битрейт        : 1024 kBit/s
Качество                 : Высокий
Добавление ID3-тэга      : Нет
Утилита сжатия           : C:\Program Files\Exact Audio Copy\flac.exe
Дополнительные параметры : -6 -V -T "ARTIST=%a" -T "TITLE=%t" -T "ALBUM=%g" -T "DATE=%y" -T "TRACKNUMBER=%n" -T "GENRE=%m" -T "COMMENT=%e" %s -o %d
TOC извлечённого CD
     Трек |   Старт  | Длительность | Начальный сектор | Конечный сектор
    ---------------------------------------------------------------------
       1  |  0:00.00 |    4:59.17   |           0      |      22441
       2  |  4:59.17 |    6:28.69   |       22442      |      51610
       3  | 11:28.11 |    4:19.27   |       51611      |      71062
       4  | 15:47.38 |    3:03.64   |       71063      |      84851
       5  | 18:51.27 |    4:13.07   |       84852      |     103833
       6  | 23:04.34 |    3:27.57   |      103834      |     119415
       7  | 26:32.16 |    4:57.28   |      119416      |     141718
       8  | 31:29.44 |    3:36.62   |      141719      |     157980
       9  | 35:06.31 |    6:10.37   |      157981      |     185767
      10  | 41:16.68 |    4:38.24   |      185768      |     206641
      11  | 45:55.17 |    5:09.45   |      206642      |     229861
Характеристики диапазона извлечения и сообщения об ошибках
Выбранный диапазон
     Имя файла H:\СКАЧКА\FLAC\1 TORRENT\Essence Of Mind - Insurrection.wav
     Пиковый уровень 100.0 %
     Качество диапазона 99.9 %
     CRC теста 5DFCEFB6
     CRC копии 5DFCEFB6
     Копирование... OK
Ошибок не произошло
AccurateRip: сводка
Трек  1  точное извлечение (доверие 3)  [5248101F]
Трек  2  точное извлечение (доверие 3)  [0D9CBD8A]
Трек  3  точное извлечение (доверие 3)  [F0FE8642]
Трек  4  точное извлечение (доверие 3)  [90DA3BEB]
Трек  5  точное извлечение (доверие 3)  [29232FF8]
Трек  6  точное извлечение (доверие 3)  [B0E6E29B]
Трек  7  точное извлечение (доверие 3)  [F63ED31E]
Трек  8  точное извлечение (доверие 3)  [1AA5F308]
Трек  9  точное извлечение (доверие 3)  [07136E1D]
Трек 10  точное извлечение (доверие 3)  [4FA6E005]
Трек 11  точное извлечение (доверие 3)  [BCCA3F5F]
Все треки извлечены точно
Конец отчёта
Правила, инструкции, FAQ!!!
Торрент  Добавлен [26 июн 2020, 20:25] Скачать торрент Магнет ссылка
Скачать торрент
[ Размер 18.52 КБ / Просмотров 9 ]

Статус
Проверен 
 
Размер  865.41 МБ
Приватный: Нет (DHT включён)
.torrent скачан  0
 


     Отправить личное сообщение
   
Страница 1 из 1
Показать сообщения за:  Поле сортировки  
Начать новую тему Ответить на тему


Сейчас этот форум просматривают: нет зарегистрированных пользователей и гости: 0


Вы не можете начинать темы
Вы не можете отвечать на сообщения
Вы не можете редактировать свои сообщения
Вы не можете удалять свои сообщения
Вы не можете добавлять вложения

Перейти:  
cron