Начать новую тему Ответить на тему
Статистика раздачи
Размер: 416.57 МБ | Добавлен: 26 июн 2020, 16:56 | Скачали: 0
Сидеров: 0  [0 байт/сек]    Личеров: 0  [0 байт/сек]
Пред. тема | След. тема 

Автор
Сообщение

СообщениеДобавлено: 26 июн 2020, 16:56 

Ответить с цитатой 

Emergence - Eschaton
Жанр: EBM, Industrial
Страна-производитель диска: USA
Год издания диска: 2004
Издатель (лейбл): Negative Gain Productions
Номер по каталогу: NGP80402
Страна: USA
Аудио кодек: FLAC (*.flac)
Тип рипа: tracks+.cue
Битрейт аудио: lossless
Продолжительность: 56:47
Источник (релизер): What.CD, dee_em
Наличие сканов в содержимом раздачи: да
Доп. информация: myspace
Треклист:
1. Slow Burn 4:39
2. Turnabout 5:25
3. Eschaton (Oblivion) 4:59
4. Parasite 4:31
5. Orouboros 4:41
6. Clouds On The Horizon 2:28
7. Defenestration 5:30
8. Faithless 5:29
9. Serpentine 5:08
10. The Creeping Hours 6:12
11. Eschaton (Entropy) 7:40
Внимание! Все выложенные здесь материалы предоставлены исключительно в целях ознакомления! После ознакомления с материалами Вы обязаны их удалить! Если Вы хотите пользоваться данным материалом в дальнейшем – Вы должны приобрести лицензионный диск.
Лучшая ваша благодарность за раздачу - отзывы об альбоме!
Код:
Exact Audio Copy V0.99 prebeta 5 from 4. May 2009
EAC extraction logfile from 18. June 2010, 10:41
Emergence / Eschaton
Used drive  : TSSTcorpCDDVDW SH-S223Q   Adapter: 1  ID: 1
Read mode               : Secure
Utilize accurate stream : Yes
Defeat audio cache      : Yes
Make use of C2 pointers : No
Read offset correction                      : 6
Overread into Lead-In and Lead-Out          : No
Fill up missing offset samples with silence : Yes
Delete leading and trailing silent blocks   : No
Null samples used in CRC calculations       : Yes
Used interface                              : Installed external ASPI interface
Gap handling                                : Appended to previous track
Used output format              : User Defined Encoder
Selected bitrate                : 128 kBit/s
Quality                         : High
Add ID3 tag                     : No
Command line compressor         : C:\Program Files\Exact Audio Copy\Flac\flac.exe
Additional command line options : -V -8 -T "artist=%a" -T "title=%t" -T "album=%g" -T "date=%y" -T "tracknumber=%n" -T "genre=%m" %s
TOC of the extracted CD
     Track |   Start  |  Length  | Start sector | End sector
    ---------------------------------------------------------
        1  |  0:00.00 |  4:39.52 |         0    |    20976
        2  |  4:39.52 |  5:25.08 |     20977    |    45359
        3  | 10:04.60 |  4:59.10 |     45360    |    67794
        4  | 15:03.70 |  4:31.49 |     67795    |    88168
        5  | 19:35.44 |  4:41.24 |     88169    |   109267
        6  | 24:16.68 |  2:28.00 |    109268    |   120367
        7  | 26:44.68 |  5:30.72 |    120368    |   145189
        8  | 32:15.65 |  5:29.11 |    145190    |   169875
        9  | 37:45.01 |  5:08.29 |    169876    |   193004
       10  | 42:53.30 |  6:12.59 |    193005    |   220963
       11  | 49:06.14 |  7:40.55 |    220964    |   255518
Track  1
     Filename C:\eacrips\Emergence - Eschaton\01 - Slow Burn.wav
     Pre-gap length  0:00:02.00
     Peak level 98.8 %
     Track quality 100.0 %
     Test CRC 7E1DF441
     Copy CRC 7E1DF441
     Accurately ripped (confidence 1)  [415EC832]
     Copy OK
Track  2
     Filename C:\eacrips\Emergence - Eschaton\02 - Turnabout.wav
     Peak level 98.8 %
     Track quality 99.9 %
     Test CRC D6FFEC0A
     Copy CRC D6FFEC0A
     Accurately ripped (confidence 1)  [07160B06]
     Copy OK
Track  3
     Filename C:\eacrips\Emergence - Eschaton\03 - Eschaton (oblivion).wav
     Pre-gap length  0:00:01.44
     Peak level 98.8 %
     Track quality 100.0 %
     Test CRC CEFC8980
     Copy CRC CEFC8980
     Accurately ripped (confidence 1)  [DBC9619A]
     Copy OK
Track  4
     Filename C:\eacrips\Emergence - Eschaton\04 - Parasite.wav
     Pre-gap length  0:00:01.49
     Peak level 98.8 %
     Track quality 99.9 %
     Test CRC AB11BA88
     Copy CRC AB11BA88
     Accurately ripped (confidence 1)  [A9E7AB1B]
     Copy OK
Track  5
     Filename C:\eacrips\Emergence - Eschaton\05 - Orouboros.wav
     Pre-gap length  0:00:01.16
     Peak level 98.8 %
     Track quality 100.0 %
     Test CRC FE8E330F
     Copy CRC FE8E330F
     Accurately ripped (confidence 1)  [501879CE]
     Copy OK
Track  6
     Filename C:\eacrips\Emergence - Eschaton\06 - Clouds on the Horizon.wav
     Peak level 98.8 %
     Track quality 100.0 %
     Test CRC 0A8D9D63
     Copy CRC 0A8D9D63
     Accurately ripped (confidence 1)  [EFBE2038]
     Copy OK
Track  7
     Filename C:\eacrips\Emergence - Eschaton\07 - Defenestration.wav
     Peak level 98.8 %
     Track quality 100.0 %
     Test CRC 85B3D64F
     Copy CRC 85B3D64F
     Accurately ripped (confidence 1)  [16425FEC]
     Copy OK
Track  8
     Filename C:\eacrips\Emergence - Eschaton\08 - Faithless.wav
     Pre-gap length  0:00:01.25
     Peak level 98.8 %
     Track quality 100.0 %
     Test CRC BA7058A7
     Copy CRC BA7058A7
     Accurately ripped (confidence 1)  [6DA755A3]
     Copy OK
Track  9
     Filename C:\eacrips\Emergence - Eschaton\09 - Serpentine.wav
     Pre-gap length  0:00:01.54
     Peak level 98.8 %
     Track quality 100.0 %
     Test CRC 7CAEC156
     Copy CRC 7CAEC156
     Accurately ripped (confidence 1)  [F3A27950]
     Copy OK
Track 10
     Filename C:\eacrips\Emergence - Eschaton\10 - The Creeping Hours.wav
     Pre-gap length  0:00:01.54
     Peak level 98.8 %
     Track quality 100.0 %
     Test CRC 780E709F
     Copy CRC 780E709F
     Accurately ripped (confidence 1)  [CD28ABE8]
     Copy OK
Track 11
     Filename C:\eacrips\Emergence - Eschaton\11 - Eschaton (entropy).wav
     Pre-gap length  0:00:01.14
     Peak level 98.8 %
     Track quality 100.0 %
     Test CRC 5C04BD53
     Copy CRC 5C04BD53
     Accurately ripped (confidence 1)  [CDB10981]
     Copy OK
All tracks accurately ripped
No errors occurred
End of status report
Код:
REM GENRE Industrial
REM DATE 2004
REM DISCID A50D4E0B
REM COMMENT "ExactAudioCopy v0.99pb5"
PERFORMER "Emergence"
TITLE "Eschaton"
FILE "Emergence - Eschaton\01 - Slow Burn.wav" WAVE
  TRACK 01 AUDIO
    TITLE "Slow Burn"
    PERFORMER "Emergence"
    INDEX 01 00:00:00
FILE "Emergence - Eschaton\02 - Turnabout.wav" WAVE
  TRACK 02 AUDIO
    TITLE "Turnabout"
    PERFORMER "Emergence"
    INDEX 01 00:00:00
  TRACK 03 AUDIO
    TITLE "Eschaton (oblivion)"
    PERFORMER "Emergence"
    INDEX 00 05:23:50
FILE "Emergence - Eschaton\03 - Eschaton (oblivion).wav" WAVE
    INDEX 01 00:00:00
  TRACK 04 AUDIO
    TITLE "Parasite"
    PERFORMER "Emergence"
    INDEX 00 04:57:48
FILE "Emergence - Eschaton\04 - Parasite.wav" WAVE
    INDEX 01 00:00:00
  TRACK 05 AUDIO
    TITLE "Orouboros"
    PERFORMER "Emergence"
    INDEX 00 04:30:37
FILE "Emergence - Eschaton\05 - Orouboros.wav" WAVE
    INDEX 01 00:00:00
FILE "Emergence - Eschaton\06 - Clouds on the Horizon.wav" WAVE
  TRACK 06 AUDIO
    TITLE "Clouds on the Horizon"
    PERFORMER "Emergence"
    INDEX 01 00:00:00
FILE "Emergence - Eschaton\07 - Defenestration.wav" WAVE
  TRACK 07 AUDIO
    TITLE "Defenestration"
    PERFORMER "Emergence"
    INDEX 01 00:00:00
  TRACK 08 AUDIO
    TITLE "Faithless"
    PERFORMER "Emergence"
    INDEX 00 05:29:53
FILE "Emergence - Eschaton\08 - Faithless.wav" WAVE
    INDEX 01 00:00:00
  TRACK 09 AUDIO
    TITLE "Serpentine"
    PERFORMER "Emergence"
    INDEX 00 05:27:45
FILE "Emergence - Eschaton\09 - Serpentine.wav" WAVE
    INDEX 01 00:00:00
  TRACK 10 AUDIO
    TITLE "The Creeping Hours"
    PERFORMER "Emergence"
    INDEX 00 05:06:63
FILE "Emergence - Eschaton\10 - The Creeping Hours.wav" WAVE
    INDEX 01 00:00:00
  TRACK 11 AUDIO
    TITLE "Eschaton (entropy)"
    PERFORMER "Emergence"
    INDEX 00 06:11:48
FILE "Emergence - Eschaton\11 - Eschaton (entropy).wav" WAVE
    INDEX 01 00:00:00


Hello everyone,
It is with some sadness that I must announce Emergence is taking an indefinate hiatus. There are some interpersonal issues at work in our band family that make it impossible to move forward with our work as a group right now, so the new CD is postponed indefinately. I am sorry.
Erik and I may work together in the near future on a new project, and he has spoken about possible involvement in other projects of his own as well. For myself, I am going to be involved in forming a new group with several former members of Emergence, about which I will write more a little later. I am very excited about this new endevour, though this excitement is tempered with sadness that the group dynamic in Emergence does not permit us to continue our work together under that name at present.
I want to offer my heartfelt thanks to everyone who supported us and encouraged us over the years. Without you, we could never have accomplished the things we did. My thanks to our crew, t-shirt gals and guys, and DeeJays everywhere who helped us out. For the true Emergence fans out there, don't lose hope, I have not.
Bless you all,
Rob
EMERGENCE was formed in 1999 by by founding members Robert Holman (aka The Apostate) and Erik Kosnar (aka Vathan K) as an experimental gothic-rock/electro project. The duo soon enlisted the aid of Noel Johannes on keys, and spent a turbulent inaugural year trying out first one guitarist and then another, and then a third. Later that year Noel left the band to be replaced by a series of guest performers for the live act, while in the studio, The Apostate and Vathan formed the core creative unit in EMERGENCE.
In 2000 the group was joined by Kim Kosnar, (known affectionately as Ms. Anthropy) on keys and bass while Vathan took on the role of live-guitarist. This line-up, augmented by periodic guest performers, provided the syncretism the group needed to take the industrial/goth scene by storm, performing shows in over 12 US cities from San Francisco to Chicago and recording and self-releasing three CD EPs in three years. The group appeared at GothCon 2002 in New Orleans, and has won the respect of DJs and fans alike throughout the US and in Europe, inspiring their own form of dancefloor bedlam.
After being signed to Chicago based Negative Gain Productions, the group's first full-length CD The Science of Suffering, hit the streets in 2003, combining provocative vocals, old-school industrial guitarwork, and the blend of dark electronica and hard-hitting beats that has become the hallmark of the EMERGENCE sound. The disc has been favorably reviewed by Side-Line Magazine, Industrial Nation Magazine, and numerous other online and print publications. The group's second full-length CD Eschaton is the latest iteration of the group's angst-ridden, cutting edge sound. Packed with hard, aggressive beats and melodic synthlines, Eschaton guarantees to pack the dancefloors.
Очень бодрячковый Industrial-EBM с гитарами, любителям обязательно к ознакомлению!
Правила, инструкции, FAQ!!!
Торрент  Добавлен [26 июн 2020, 16:56] Скачать торрент Магнет ссылка
Скачать торрент
[ Размер 17.61 КБ / Просмотров 3 ]

Статус
Проверен 
 
Размер  416.57 МБ
Приватный: Нет (DHT включён)
.torrent скачан  0
 


     Отправить личное сообщение
   
Страница 1 из 1
Показать сообщения за:  Поле сортировки  
Начать новую тему Ответить на тему


Сейчас этот форум просматривают: нет зарегистрированных пользователей и гости: 0


Вы не можете начинать темы
Вы не можете отвечать на сообщения
Вы не можете редактировать свои сообщения
Вы не можете удалять свои сообщения
Вы не можете добавлять вложения

Перейти:  
cron