Начать новую тему Ответить на тему
Статистика раздачи
Размер: 1.28 ГБ | Добавлен: 26 июн 2020, 20:44 | Скачали: 0
Сидеров: 0  [0 байт/сек]    Личеров: 0  [0 байт/сек]
Пред. тема | След. тема 

Автор
Сообщение

СообщениеДобавлено: 26 июн 2020, 20:44 

Ответить с цитатой 

In Strict Confidence - La Parade Monstrueuse (Collected Works) (3CD Box Set)
Жанр: EBM, Industrial, Electronic
Носитель: CD
Год выпуска диска: 2016
Издатель (лейбл): Minuswelt Musikfabrik
Каталожный номер: minus053
Страна-производитель диска: Germany
Аудиокодек: FLAC (*.flac)
Тип рипа: tracks+.cue
Битрейт аудио: lossless
Продолжительность: 3 ~ 02:30:51
Источник (релизер): Собственный диск
Наличие сканов в содержимом раздачи: нет
#777Трэклист:
01-La Parade Monstrueuse (Intro) 1:02
02-My Despair 5:01
03-Silver Bullets 4:21
04-One Drop 5:23
05-Set Me Free 4:30
06-This Is All 4:07
07-Ewige Nacht 4:52
08-Snow White 5:16
09-I Surrender 4:57
10-Schwarzes Licht 4:55
11-Golden Gate 5:43
Код:
Exact Audio Copy V1.2 from 12. August 2016
EAC extraction logfile from 8. September 2016, 23:03
In Strict Confidence / La Parade Monstrueuse
Used drive  : HL-DT-STDVDRAM GH24NSC0   Adapter: 2  ID: 1
Read mode               : Secure
Utilize accurate stream : Yes
Defeat audio cache      : Yes
Make use of C2 pointers : No
Read offset correction                      : 6
Overread into Lead-In and Lead-Out          : No
Fill up missing offset samples with silence : Yes
Delete leading and trailing silent blocks   : No
Null samples used in CRC calculations       : Yes
Used interface                              : Native Win32 interface for Win NT & 2000
Gap handling                                : Appended to previous track
Used output format              : User Defined Encoder
Selected bitrate                : 128 kBit/s
Quality                         : High
Add ID3 tag                     : No
Command line compressor         : C:\Program Files (x86)\Exact Audio Copy\Flac\flac.exe
Additional command line options : -8 -V -T "ARTIST=%artist%" -T "TITLE=%title%" -T "ALBUM=%albumtitle%" -T "DATE=%year%" -T "TRACKNUMBER=%tracknr%" -T "GENRE=%genre%" -T "PERFORMER=%albuminterpret%" -T "COMPOSER=%composer%" %haslyrics%--tag-from-file=LYRICS="%lyricsfile%"%haslyrics% -T "ALBUMARTIST=%albumartist%" -T "DISCNUMBER=%cdnumber%" -T "TOTALDISCS=%totalcds%" -T "TOTALTRACKS=%numtracks%" -T "COMMENT=%comment%" %source% -o %dest%
TOC of the extracted CD
     Track |   Start  |  Length  | Start sector | End sector
    ---------------------------------------------------------
        1  |  0:00.00 |  0:59.51 |         0    |     4475
        2  |  0:59.51 |  5:00.46 |      4476    |    27021
        3  |  6:00.22 |  4:19.14 |     27022    |    46460
        4  | 10:19.36 |  5:25.57 |     46461    |    70892
        5  | 15:45.18 |  4:31.19 |     70893    |    91236
        6  | 20:16.37 |  3:50.10 |     91237    |   108496
        7  | 24:06.47 |  4:49.04 |    108497    |   130175
        8  | 28:55.51 |  5:14.05 |    130176    |   153730
        9  | 34:09.56 |  4:54.27 |    153731    |   175807
       10  | 39:04.08 |  4:54.22 |    175808    |   197879
       11  | 43:58.30 |  5:36.59 |    197880    |   223138
Track  1
     Filename M:\01 - La Parade Monstrueuse (Intro).wav
     Pre-gap length  0:00:02.00
     Peak level 99.8 %
     Extraction speed 3.3 X
     Track quality 100.0 %
     Test CRC 20C3373C
     Copy CRC 20C3373C
     Accurately ripped (confidence 17)  [73628724]  (AR v2)
     Copy OK
Track  2
     Filename M:\02 - My Despair.wav
     Peak level 100.0 %
     Extraction speed 5.2 X
     Track quality 100.0 %
     Test CRC E4C881D1
     Copy CRC E4C881D1
     Accurately ripped (confidence 17)  [7AF4D136]  (AR v2)
     Copy OK
Track  3
     Filename M:\03 - Silver Bullets.wav
     Pre-gap length  0:00:00.37
     Peak level 100.0 %
     Extraction speed 5.5 X
     Track quality 100.0 %
     Test CRC D7D840A7
     Copy CRC D7D840A7
     Accurately ripped (confidence 17)  [0F59EE9C]  (AR v2)
     Copy OK
Track  4
     Filename M:\04 - One Drop.wav
     Pre-gap length  0:00:01.00
     Peak level 100.0 %
     Extraction speed 6.1 X
     Track quality 100.0 %
     Test CRC 74BD6B2F
     Copy CRC 74BD6B2F
     Accurately ripped (confidence 17)  [B493A9CC]  (AR v2)
     Copy OK
Track  5
     Filename M:\05 - Set Me Free.wav
     Pre-gap length  0:00:01.37
     Peak level 100.0 %
     Extraction speed 5.8 X
     Track quality 99.9 %
     Test CRC 234ADA13
     Copy CRC 234ADA13
     Accurately ripped (confidence 17)  [766D74AF]  (AR v2)
     Copy OK
Track  6
     Filename M:\06 - This Is All.wav
     Pre-gap length  0:00:01.37
     Peak level 100.0 %
     Extraction speed 6.6 X
     Track quality 100.0 %
     Test CRC 3590E492
     Copy CRC 3590E492
     Accurately ripped (confidence 17)  [51D8D5B5]  (AR v2)
     Copy OK
Track  7
     Filename M:\07 - Ewige Nacht.wav
     Pre-gap length  0:00:01.00
     Peak level 100.0 %
     Extraction speed 7.3 X
     Track quality 100.0 %
     Test CRC A042E0FF
     Copy CRC A042E0FF
     Accurately ripped (confidence 17)  [9CAFF224]  (AR v2)
     Copy OK
Track  8
     Filename M:\08 - SnowWhite.wav
     Peak level 100.0 %
     Extraction speed 6.9 X
     Track quality 99.9 %
     Test CRC 49469921
     Copy CRC 49469921
     Accurately ripped (confidence 17)  [53ADA12B]  (AR v2)
     Copy OK
Track  9
     Filename M:\09 - I Surrender.wav
     Pre-gap length  0:00:01.00
     Peak level 100.0 %
     Extraction speed 7.9 X
     Track quality 100.0 %
     Test CRC D6372D49
     Copy CRC D6372D49
     Accurately ripped (confidence 17)  [984391D4]  (AR v2)
     Copy OK
Track 10
     Filename M:\10 - Schwarzes Licht.wav
     Peak level 100.0 %
     Extraction speed 8.0 X
     Track quality 100.0 %
     Test CRC 20AC1D1F
     Copy CRC 20AC1D1F
     Accurately ripped (confidence 17)  [92CC2E25]  (AR v2)
     Copy OK
Track 11
     Filename M:\11 - Golden Gate.wav
     Pre-gap length  0:00:01.00
     Peak level 100.0 %
     Extraction speed 8.5 X
     Track quality 100.0 %
     Test CRC 6E44CEF0
     Copy CRC 6E44CEF0
     Accurately ripped (confidence 16)  [04F4466A]  (AR v2)
     Copy OK
All tracks accurately ripped
No errors occurred
End of status report
==== Log checksum E5CA5105B1D6A1BA7DA7EB16531B569B8EBFE54B8E51DA002A02DA8A68EEBD8C ====
Код:
REM GENRE Electronic
REM DATE 2010
REM DISCID 830B9F0B
REM COMMENT "ExactAudioCopy v1.2"
PERFORMER "In Strict Confidence"
TITLE "La Parade Monstrueuse"
REM COMPOSER ""
FILE "01 - La Parade Monstrueuse (Intro).wav" WAVE
  TRACK 01 AUDIO
    TITLE "La Parade Monstrueuse (Intro)"
    PERFORMER "In Strict Confidence"
    REM COMPOSER ""
    ISRC DEAY91000074
    INDEX 01 00:00:00
FILE "02 - My Despair.wav" WAVE
  TRACK 02 AUDIO
    TITLE "My Despair"
    PERFORMER "In Strict Confidence"
    REM COMPOSER ""
    ISRC DEAY91000075
    INDEX 01 00:00:00
  TRACK 03 AUDIO
    TITLE "Silver Bullets"
    PERFORMER "In Strict Confidence"
    REM COMPOSER ""
    ISRC DEAY91000076
    INDEX 00 05:00:09
FILE "03 - Silver Bullets.wav" WAVE
    INDEX 01 00:00:00
  TRACK 04 AUDIO
    TITLE "One Drop"
    PERFORMER "In Strict Confidence"
    REM COMPOSER ""
    ISRC DEAY91000077
    INDEX 00 04:18:14
FILE "04 - One Drop.wav" WAVE
    INDEX 01 00:00:00
  TRACK 05 AUDIO
    TITLE "Set Me Free"
    PERFORMER "In Strict Confidence"
    REM COMPOSER ""
    ISRC DEAY91000078
    INDEX 00 05:24:20
FILE "05 - Set Me Free.wav" WAVE
    INDEX 01 00:00:00
  TRACK 06 AUDIO
    TITLE "This Is All"
    PERFORMER "In Strict Confidence"
    REM COMPOSER ""
    ISRC DEAY91000079
    INDEX 00 04:29:57
FILE "06 - This Is All.wav" WAVE
    INDEX 01 00:00:00
  TRACK 07 AUDIO
    TITLE "Ewige Nacht"
    PERFORMER "In Strict Confidence"
    REM COMPOSER ""
    ISRC DEAY91000080
    INDEX 00 03:49:10
FILE "07 - Ewige Nacht.wav" WAVE
    INDEX 01 00:00:00
FILE "08 - SnowWhite.wav" WAVE
  TRACK 08 AUDIO
    TITLE "SnowWhite"
    PERFORMER "In Strict Confidence"
    REM COMPOSER ""
    ISRC DEAY91000081
    INDEX 01 00:00:00
  TRACK 09 AUDIO
    TITLE "I Surrender"
    PERFORMER "In Strict Confidence"
    REM COMPOSER ""
    ISRC DEAY91000082
    INDEX 00 05:13:05
FILE "09 - I Surrender.wav" WAVE
    INDEX 01 00:00:00
FILE "10 - Schwarzes Licht.wav" WAVE
  TRACK 10 AUDIO
    TITLE "Schwarzes Licht"
    PERFORMER "In Strict Confidence"
    REM COMPOSER ""
    ISRC DEAY91000083
    INDEX 01 00:00:00
  TRACK 11 AUDIO
    TITLE "Golden Gate"
    PERFORMER "In Strict Confidence"
    REM COMPOSER ""
    ISRC DEAY91000084
    INDEX 00 04:53:22
FILE "11 - Golden Gate.wav" WAVE
    INDEX 01 00:00:00
#777Трэклист:
01-My Despair (Single Version) 3:31
02-My Despair (Clubmix) 5:59
03-Feeling 5:17
04-My Despair (Sono Remix) 5:50
05-Constant Flow 3:58
06-My Despair (Slowdive) 6:22
07-My Despair (Extended Version) 8:06
Код:
Exact Audio Copy V1.2 from 12. August 2016
EAC extraction logfile from 9. September 2016, 7:12
In Strict Confidence / My Despair
Used drive  : HL-DT-STDVDRAM GH24NSC0   Adapter: 2  ID: 1
Read mode               : Secure
Utilize accurate stream : Yes
Defeat audio cache      : Yes
Make use of C2 pointers : No
Read offset correction                      : 6
Overread into Lead-In and Lead-Out          : No
Fill up missing offset samples with silence : Yes
Delete leading and trailing silent blocks   : No
Null samples used in CRC calculations       : Yes
Used interface                              : Native Win32 interface for Win NT & 2000
Gap handling                                : Appended to previous track
Used output format              : User Defined Encoder
Selected bitrate                : 128 kBit/s
Quality                         : High
Add ID3 tag                     : No
Command line compressor         : C:\Program Files (x86)\Exact Audio Copy\Flac\flac.exe
Additional command line options : -8 -V -T "ARTIST=%artist%" -T "TITLE=%title%" -T "ALBUM=%albumtitle%" -T "DATE=%year%" -T "TRACKNUMBER=%tracknr%" -T "GENRE=%genre%" -T "PERFORMER=%albuminterpret%" -T "COMPOSER=%composer%" %haslyrics%--tag-from-file=LYRICS="%lyricsfile%"%haslyrics% -T "ALBUMARTIST=%albumartist%" -T "DISCNUMBER=%cdnumber%" -T "TOTALDISCS=%totalcds%" -T "TOTALTRACKS=%numtracks%" -T "COMMENT=%comment%" %source% -o %dest%
TOC of the extracted CD
     Track |   Start  |  Length  | Start sector | End sector
    ---------------------------------------------------------
        1  |  0:00.00 |  3:33.58 |         0    |    16032
        2  |  3:33.58 |  6:02.66 |     16033    |    43248
        3  |  9:36.49 |  5:20.50 |     43249    |    67298
        4  | 14:57.24 |  5:55.10 |     67299    |    93933
        5  | 20:52.34 |  4:01.65 |     93934    |   112073
        6  | 24:54.24 |  6:26.06 |    112074    |   141029
        7  | 31:20.30 |  8:07.71 |    141030    |   177625
        8  | 42:00.26 | 22:10.73 |    189026    |   288848
Track  1
     Filename M:\01 - My Despair (Single Version).wav
     Pre-gap length  0:00:02.00
     Peak level 100.0 %
     Extraction speed 4.4 X
     Track quality 99.9 %
     Test CRC 99FB49CB
     Copy CRC 99FB49CB
     Accurately ripped (confidence 6)  [E39B531B]  (AR v2)
     Copy OK
Track  2
     Filename M:\02 - My Despair (Clubmix).wav
     Pre-gap length  0:00:02.00
     Peak level 100.0 %
     Extraction speed 5.6 X
     Track quality 99.9 %
     Test CRC FC133E2A
     Copy CRC FC133E2A
     Accurately ripped (confidence 6)  [58AA1FE3]  (AR v2)
     Copy OK
Track  3
     Filename M:\03 - Feeling.wav
     Pre-gap length  0:00:02.00
     Peak level 100.0 %
     Extraction speed 6.1 X
     Track quality 99.9 %
     Test CRC 43C92BC9
     Copy CRC 43C92BC9
     Accurately ripped (confidence 6)  [B1682C99]  (AR v2)
     Copy OK
Track  4
     Filename M:\04 - My Despair (Sono Remix).wav
     Pre-gap length  0:00:01.74
     Peak level 100.0 %
     Extraction speed 7.4 X
     Track quality 100.0 %
     Test CRC 2AC65DEE
     Copy CRC 2AC65DEE
     Accurately ripped (confidence 6)  [46B48958]  (AR v2)
     Copy OK
Track  5
     Filename M:\05 - Constant Flow.wav
     Pre-gap length  0:00:02.00
     Peak level 100.0 %
     Extraction speed 7.4 X
     Track quality 100.0 %
     Test CRC F1563D37
     Copy CRC F1563D37
     Accurately ripped (confidence 6)  [5EA83058]  (AR v2)
     Copy OK
Track  6
     Filename M:\06 - My Despair (Slowdive).wav
     Pre-gap length  0:00:02.00
     Peak level 100.0 %
     Extraction speed 7.6 X
     Track quality 99.9 %
     Test CRC E215740F
     Copy CRC E215740F
     Accurately ripped (confidence 6)  [49A4217D]  (AR v2)
     Copy OK
Track  7
     Filename M:\07 - My Despair (Extended Version).wav
     Pre-gap length  0:00:02.00
     Peak level 100.0 %
     Extraction speed 9.0 X
     Track quality 100.0 %
     Test CRC 8C866D93
     Copy CRC 8C866D93
     Accurately ripped (confidence 6)  [60F84F28]  (AR v2)
     Copy OK
All tracks accurately ripped
No errors occurred
End of status report
==== Log checksum EEBC05DF602F6CE958BC9A343A694110887AE2B4C86C58BE9325AFBD8B85A143 ====
Код:
REM GENRE Electronic
REM DATE 2009
REM DISCID 760F0B08
REM COMMENT "ExactAudioCopy v1.2"
CATALOG 4046661179057
PERFORMER "In Strict Confidence"
TITLE "My Despair"
REM COMPOSER ""
FILE "01 - My Despair (Single Version).wav" WAVE
  TRACK 01 AUDIO
    TITLE "My Despair (Single Version)"
    PERFORMER "In Strict Confidence"
    REM COMPOSER ""
    ISRC DEAY90900058
    INDEX 01 00:00:00
  TRACK 02 AUDIO
    TITLE "My Despair (Clubmix)"
    PERFORMER "In Strict Confidence"
    REM COMPOSER ""
    ISRC DEAY90900059
    INDEX 00 03:31:58
FILE "02 - My Despair (Clubmix).wav" WAVE
    INDEX 01 00:00:00
  TRACK 03 AUDIO
    TITLE "Feeling"
    PERFORMER "In Strict Confidence"
    REM COMPOSER ""
    ISRC DEAY90900060
    INDEX 00 06:00:66
FILE "03 - Feeling.wav" WAVE
    INDEX 01 00:00:00
  TRACK 04 AUDIO
    TITLE "My Despair (Sono Remix)"
    PERFORMER "In Strict Confidence"
    REM COMPOSER ""
    ISRC DEAY90900061
    INDEX 00 05:18:51
FILE "04 - My Despair (Sono Remix).wav" WAVE
    INDEX 01 00:00:00
  TRACK 05 AUDIO
    TITLE "Constant Flow"
    PERFORMER "In Strict Confidence"
    REM COMPOSER ""
    ISRC DEAY90900062
    INDEX 00 05:53:10
FILE "05 - Constant Flow.wav" WAVE
    INDEX 01 00:00:00
  TRACK 06 AUDIO
    TITLE "My Despair (Slowdive)"
    PERFORMER "In Strict Confidence"
    REM COMPOSER ""
    ISRC DEAY90900063
    INDEX 00 03:59:65
FILE "06 - My Despair (Slowdive).wav" WAVE
    INDEX 01 00:00:00
  TRACK 07 AUDIO
    TITLE "My Despair (Extended Version)"
    PERFORMER "In Strict Confidence"
    REM COMPOSER ""
    ISRC DEAY90900064
    INDEX 00 06:24:06
FILE "07 - My Despair (Extended Version).wav" WAVE
    INDEX 01 00:00:00
Код:
REM GENRE Electronic
REM DATE 2009
REM DISCID 760F0B08
REM COMMENT "ExactAudioCopy v1.2"
CATALOG 4046661179057
PERFORMER "In Strict Confidence"
TITLE "My Despair"
REM COMPOSER ""
FILE "01 - My Despair (Single Version).wav" WAVE
  TRACK 01 AUDIO
    TITLE "My Despair (Single Version)"
    PERFORMER "In Strict Confidence"
    REM COMPOSER ""
    ISRC DEAY90900058
    INDEX 01 00:00:00
  TRACK 02 AUDIO
    TITLE "My Despair (Clubmix)"
    PERFORMER "In Strict Confidence"
    REM COMPOSER ""
    ISRC DEAY90900059
    INDEX 00 03:31:58
FILE "02 - My Despair (Clubmix).wav" WAVE
    INDEX 01 00:00:00
  TRACK 03 AUDIO
    TITLE "Feeling"
    PERFORMER "In Strict Confidence"
    REM COMPOSER ""
    ISRC DEAY90900060
    INDEX 00 06:00:66
FILE "03 - Feeling.wav" WAVE
    INDEX 01 00:00:00
  TRACK 04 AUDIO
    TITLE "My Despair (Sono Remix)"
    PERFORMER "In Strict Confidence"
    REM COMPOSER ""
    ISRC DEAY90900061
    INDEX 00 05:18:51
FILE "04 - My Despair (Sono Remix).wav" WAVE
    INDEX 01 00:00:00
  TRACK 05 AUDIO
    TITLE "Constant Flow"
    PERFORMER "In Strict Confidence"
    REM COMPOSER ""
    ISRC DEAY90900062
    INDEX 00 05:53:10
FILE "05 - Constant Flow.wav" WAVE
    INDEX 01 00:00:00
  TRACK 06 AUDIO
    TITLE "My Despair (Slowdive)"
    PERFORMER "In Strict Confidence"
    REM COMPOSER ""
    ISRC DEAY90900063
    INDEX 00 03:59:65
FILE "06 - My Despair (Slowdive).wav" WAVE
    INDEX 01 00:00:00
  TRACK 07 AUDIO
    TITLE "My Despair (Extended Version)"
    PERFORMER "In Strict Confidence"
    REM COMPOSER ""
    ISRC DEAY90900064
    INDEX 00 06:24:06
FILE "07 - My Despair (Extended Version).wav" WAVE
    INDEX 01 00:00:00
  TRACK 08 MODEx/2xxx
    TITLE "Unknown Title"
    PERFORMER "In Strict Confidence"
    REM COMPOSER ""
    INDEX 00 08:07:71
Файл In Strict Confidence - My Despair.cue - рабочий CUE для записи альбома на CD.
Файл In Strict Confidence - My Despair (No Edit).cue - оригинальный CUE, сгенерированный ЕАС, годится только для проверки.
В папке Extra находится мультимедийная часть данного издания.
Формат: MPG4
Видео кодек: MPEG4 Video (H264)
Аудио кодек: AAC
Видео: 640*360 (16:9), 30 fps, 1504 Kbps
Аудио: 44100 Hz, 2 ch, 142 Kbps
Формат: MPG4
Видео кодек: MPEG4 Video (H264)
Аудио кодек: QT PCM
Видео: 720*576 (16:9), 30 fps, 4109 Kbps
Аудио: 44100 Hz, 2 ch, 1411 Kbps
#777Трэклист:
01-Set Me Free (Extended Version) 8:30
02 My Despair (Monozelle Remix) 4:44
03-Set Me Free (Piano Version) 4:37
04-One Drop (DJ Francois Vs. Kartagon Remix) 4:26
05-Set Me Free (Rhys Fulber Remix) 4:23
06-One Drop (Patenbrigade:Wolff Remix) 4:57
07-My Despair (Crashtv Remix) 3:53
08-Promised Land (MC1R Remix) 2:40
09-Set Me Free (ASP Remix) 5:31
10-My Despair (Parralox Remix) 5:55
11-Am Abgrund (Samsas Traum Remix) 4:51
12-My Despair (Mind:Shredder Remix) 4:35
13-Lazarus 2:18
Код:
Exact Audio Copy V1.2 from 12. August 2016
EAC extraction logfile from 9. September 2016, 18:49
In Strict Confidence / Set Me Free
Used drive  : HL-DT-STDVDRAM GH24NSC0   Adapter: 2  ID: 1
Read mode               : Secure
Utilize accurate stream : Yes
Defeat audio cache      : Yes
Make use of C2 pointers : No
Read offset correction                      : 6
Overread into Lead-In and Lead-Out          : No
Fill up missing offset samples with silence : Yes
Delete leading and trailing silent blocks   : No
Null samples used in CRC calculations       : Yes
Used interface                              : Native Win32 interface for Win NT & 2000
Gap handling                                : Appended to previous track
Used output format              : User Defined Encoder
Selected bitrate                : 128 kBit/s
Quality                         : High
Add ID3 tag                     : No
Command line compressor         : C:\Program Files (x86)\Exact Audio Copy\Flac\flac.exe
Additional command line options : -8 -V -T "ARTIST=%artist%" -T "TITLE=%title%" -T "ALBUM=%albumtitle%" -T "DATE=%year%" -T "TRACKNUMBER=%tracknr%" -T "GENRE=%genre%" -T "PERFORMER=%albuminterpret%" -T "COMPOSER=%composer%" %haslyrics%--tag-from-file=LYRICS="%lyricsfile%"%haslyrics% -T "ALBUMARTIST=%albumartist%" -T "DISCNUMBER=%cdnumber%" -T "TOTALDISCS=%totalcds%" -T "TOTALTRACKS=%numtracks%" -T "COMMENT=%comment%" %source% -o %dest%
TOC of the extracted CD
     Track |   Start  |  Length  | Start sector | End sector
    ---------------------------------------------------------
        1  |  0:00.00 |  8:31.69 |         0    |    38393
        2  |  8:31.69 |  4:46.03 |     38394    |    59846
        3  | 13:17.72 |  4:39.69 |     59847    |    80840
        4  | 17:57.66 |  4:28.51 |     80841    |   100991
        5  | 22:26.42 |  4:25.31 |    100992    |   120897
        6  | 26:51.73 |  4:59.10 |    120898    |   143332
        7  | 31:51.08 |  3:55.32 |    143333    |   160989
        8  | 35:46.40 |  2:42.32 |    160990    |   173171
        9  | 38:28.72 |  5:33.46 |    173172    |   198192
       10  | 44:02.43 |  5:57.03 |    198193    |   224970
       11  | 49:59.46 |  4:53.34 |    224971    |   246979
       12  | 54:53.05 |  4:37.03 |    246980    |   267757
       13  | 59:30.08 |  2:18.00 |    267758    |   278107
       14  | 64:20.08 |  5:15.68 |    289508    |   313200
Track  1
     Filename M:\01 - Set Me Free (Extended Version).wav
     Pre-gap length  0:00:02.00
     Peak level 99.9 %
     Extraction speed 6.0 X
     Track quality 99.9 %
     Test CRC EC56AB3C
     Copy CRC EC56AB3C
     Accurately ripped (confidence 6)  [1974808E]  (AR v2)
     Copy OK
Track  2
     Filename M:\02 - My Despair (Monozelle Remix).wav
     Pre-gap length  0:00:02.00
     Peak level 99.9 %
     Extraction speed 6.8 X
     Track quality 100.0 %
     Test CRC 845D5515
     Copy CRC 845D5515
     Accurately ripped (confidence 7)  [25EB11E2]  (AR v2)
     Copy OK
Track  3
     Filename M:\03 - Set Me Free (Piano Version).wav
     Pre-gap length  0:00:02.00
     Peak level 99.9 %
     Extraction speed 7.3 X
     Track quality 100.0 %
     Test CRC 0D0FC269
     Copy CRC 0D0FC269
     Accurately ripped (confidence 7)  [DA59A99E]  (AR v2)
     Copy OK
Track  4
     Filename M:\04 - One Drop (DJ Francois Vs. Kartagon Remix).wav
     Pre-gap length  0:00:02.00
     Peak level 99.9 %
     Extraction speed 7.7 X
     Track quality 100.0 %
     Test CRC 67200882
     Copy CRC 67200882
     Accurately ripped (confidence 7)  [8147088C]  (AR v2)
     Copy OK
Track  5
     Filename M:\05 - Set Me Free (Rhys Fulber Remix).wav
     Pre-gap length  0:00:02.00
     Peak level 100.0 %
     Extraction speed 8.1 X
     Track quality 100.0 %
     Test CRC A2CAF4BD
     Copy CRC A2CAF4BD
     Accurately ripped (confidence 6)  [C630C4AD]  (AR v2)
     Copy OK
Track  6
     Filename M:\06 - One Drop (Patenbrigade- Wolff Remix).wav
     Pre-gap length  0:00:02.00
     Peak level 99.9 %
     Extraction speed 7.9 X
     Track quality 99.9 %
     Test CRC FC5D2049
     Copy CRC FC5D2049
     Accurately ripped (confidence 7)  [525994B9]  (AR v2)
     Copy OK
Track  7
     Filename M:\07 - My Despair (Crashtv Remix).wav
     Pre-gap length  0:00:02.00
     Peak level 99.9 %
     Extraction speed 8.7 X
     Track quality 100.0 %
     Test CRC 64B426B4
     Copy CRC 64B426B4
     Accurately ripped (confidence 7)  [90EBF29E]  (AR v2)
     Copy OK
Track  8
     Filename M:\08 - Promised Land (MC1R Remix).wav
     Pre-gap length  0:00:02.00
     Peak level 99.9 %
     Extraction speed 8.4 X
     Track quality 100.0 %
     Test CRC D2C9385E
     Copy CRC D2C9385E
     Accurately ripped (confidence 7)  [AB2D65BB]  (AR v2)
     Copy OK
Track  9
     Filename M:\09 - Set Me Free (ASP Remix).wav
     Pre-gap length  0:00:02.00
     Peak level 100.0 %
     Extraction speed 8.8 X
     Track quality 99.9 %
     Test CRC BC8BB7F2
     Copy CRC BC8BB7F2
     Accurately ripped (confidence 7)  [E487B8EE]  (AR v2)
     Copy OK
Track 10
     Filename M:\10 - My Despair (Parralox Remix).wav
     Pre-gap length  0:00:02.00
     Peak level 99.9 %
     Extraction speed 10.1 X
     Track quality 100.0 %
     Test CRC 863F61E8
     Copy CRC 863F61E8
     Accurately ripped (confidence 7)  [AC25C9D7]  (AR v2)
     Copy OK
Track 11
     Filename M:\11 - Am Abgrund (Samsas Traum Remix).wav
     Pre-gap length  0:00:02.00
     Peak level 99.9 %
     Extraction speed 9.4 X
     Track quality 99.9 %
     Test CRC BF639F35
     Copy CRC BF639F35
     Accurately ripped (confidence 7)  [F992CD0D]  (AR v2)
     Copy OK
Track 12
     Filename M:\12 - My Depair (Mind-Shredder Remix).wav
     Pre-gap length  0:00:02.00
     Peak level 99.9 %
     Extraction speed 10.5 X
     Track quality 100.0 %
     Test CRC FBBC0AAE
     Copy CRC FBBC0AAE
     Accurately ripped (confidence 7)  [FDEC5BF7]  (AR v2)
     Copy OK
Track 13
     Filename M:\13 - Lazarus.wav
     Pre-gap length  0:00:02.00
     Peak level 99.9 %
     Extraction speed 9.7 X
     Track quality 100.0 %
     Test CRC 03D0C8D8
     Copy CRC 03D0C8D8
     Accurately ripped (confidence 7)  [04976271]  (AR v2)
     Copy OK
All tracks accurately ripped
No errors occurred
End of status report
==== Log checksum 66857E3A6DA011E82E5EF9B658B5A710E6DCC56649E18B7F01049460973A7F3D ====
Код:
REM GENRE Electronic
REM DATE 2011
REM DISCID BE10500E
REM COMMENT "ExactAudioCopy v1.2"
PERFORMER "In Strict Confidence"
TITLE "Set Me Free"
REM COMPOSER ""
FILE "01 - Set Me Free (Extended Version).wav" WAVE
  TRACK 01 AUDIO
    TITLE "Set Me Free (Extended Version)"
    PERFORMER "In Strict Confidence"
    REM COMPOSER ""
    INDEX 01 00:00:00
  TRACK 02 AUDIO
    TITLE "My Despair (Monozelle Remix)"
    PERFORMER "In Strict Confidence"
    REM COMPOSER ""
    INDEX 00 08:29:69
FILE "02 - My Despair (Monozelle Remix).wav" WAVE
    INDEX 01 00:00:00
  TRACK 03 AUDIO
    TITLE "Set Me Free (Piano Version)"
    PERFORMER "In Strict Confidence"
    REM COMPOSER ""
    INDEX 00 04:44:03
FILE "03 - Set Me Free (Piano Version).wav" WAVE
    INDEX 01 00:00:00
  TRACK 04 AUDIO
    TITLE "One Drop (DJ Francois Vs. Kartagon Remix)"
    PERFORMER "In Strict Confidence"
    REM COMPOSER ""
    INDEX 00 04:37:69
FILE "04 - One Drop (DJ Francois Vs. Kartagon Remix).wav" WAVE
    INDEX 01 00:00:00
  TRACK 05 AUDIO
    TITLE "Set Me Free (Rhys Fulber Remix)"
    PERFORMER "In Strict Confidence"
    REM COMPOSER ""
    INDEX 00 04:26:51
FILE "05 - Set Me Free (Rhys Fulber Remix).wav" WAVE
    INDEX 01 00:00:00
  TRACK 06 AUDIO
    TITLE "One Drop (Patenbrigade: Wolff Remix)"
    PERFORMER "In Strict Confidence"
    REM COMPOSER ""
    INDEX 00 04:23:31
FILE "06 - One Drop (Patenbrigade- Wolff Remix).wav" WAVE
    INDEX 01 00:00:00
  TRACK 07 AUDIO
    TITLE "My Despair (Crashtv Remix)"
    PERFORMER "In Strict Confidence"
    REM COMPOSER ""
    INDEX 00 04:57:10
FILE "07 - My Despair (Crashtv Remix).wav" WAVE
    INDEX 01 00:00:00
  TRACK 08 AUDIO
    TITLE "Promised Land (MC1R Remix)"
    PERFORMER "In Strict Confidence"
    REM COMPOSER ""
    INDEX 00 03:53:32
FILE "08 - Promised Land (MC1R Remix).wav" WAVE
    INDEX 01 00:00:00
  TRACK 09 AUDIO
    TITLE "Set Me Free (ASP Remix)"
    PERFORMER "In Strict Confidence"
    REM COMPOSER ""
    INDEX 00 02:40:32
FILE "09 - Set Me Free (ASP Remix).wav" WAVE
    INDEX 01 00:00:00
  TRACK 10 AUDIO
    TITLE "My Despair (Parralox Remix)"
    PERFORMER "In Strict Confidence"
    REM COMPOSER ""
    INDEX 00 05:31:46
FILE "10 - My Despair (Parralox Remix).wav" WAVE
    INDEX 01 00:00:00
  TRACK 11 AUDIO
    TITLE "Am Abgrund (Samsas Traum Remix)"
    PERFORMER "In Strict Confidence"
    REM COMPOSER ""
    INDEX 00 05:55:03
FILE "11 - Am Abgrund (Samsas Traum Remix).wav" WAVE
    INDEX 01 00:00:00
  TRACK 12 AUDIO
    TITLE "My Depair (Mind:Shredder Remix)"
    PERFORMER "In Strict Confidence"
    REM COMPOSER ""
    INDEX 00 04:51:34
FILE "12 - My Depair (Mind-Shredder Remix).wav" WAVE
    INDEX 01 00:00:00
  TRACK 13 AUDIO
    TITLE "Lazarus"
    PERFORMER "In Strict Confidence"
    REM COMPOSER ""
    INDEX 00 04:35:03
FILE "13 - Lazarus.wav" WAVE
    INDEX 01 00:00:00
Код:
REM GENRE Electronic
REM DATE 2011
REM DISCID BE10500E
REM COMMENT "ExactAudioCopy v1.2"
PERFORMER "In Strict Confidence"
TITLE "Set Me Free"
REM COMPOSER ""
FILE "01 - Set Me Free (Extended Version).wav" WAVE
  TRACK 01 AUDIO
    TITLE "Set Me Free (Extended Version)"
    PERFORMER "In Strict Confidence"
    REM COMPOSER ""
    INDEX 01 00:00:00
  TRACK 02 AUDIO
    TITLE "My Despair (Monozelle Remix)"
    PERFORMER "In Strict Confidence"
    REM COMPOSER ""
    INDEX 00 08:29:69
FILE "02 - My Despair (Monozelle Remix).wav" WAVE
    INDEX 01 00:00:00
  TRACK 03 AUDIO
    TITLE "Set Me Free (Piano Version)"
    PERFORMER "In Strict Confidence"
    REM COMPOSER ""
    INDEX 00 04:44:03
FILE "03 - Set Me Free (Piano Version).wav" WAVE
    INDEX 01 00:00:00
  TRACK 04 AUDIO
    TITLE "One Drop (DJ Francois Vs. Kartagon Remix)"
    PERFORMER "In Strict Confidence"
    REM COMPOSER ""
    INDEX 00 04:37:69
FILE "04 - One Drop (DJ Francois Vs. Kartagon Remix).wav" WAVE
    INDEX 01 00:00:00
  TRACK 05 AUDIO
    TITLE "Set Me Free (Rhys Fulber Remix)"
    PERFORMER "In Strict Confidence"
    REM COMPOSER ""
    INDEX 00 04:26:51
FILE "05 - Set Me Free (Rhys Fulber Remix).wav" WAVE
    INDEX 01 00:00:00
  TRACK 06 AUDIO
    TITLE "One Drop (Patenbrigade: Wolff Remix)"
    PERFORMER "In Strict Confidence"
    REM COMPOSER ""
    INDEX 00 04:23:31
FILE "06 - One Drop (Patenbrigade- Wolff Remix).wav" WAVE
    INDEX 01 00:00:00
  TRACK 07 AUDIO
    TITLE "My Despair (Crashtv Remix)"
    PERFORMER "In Strict Confidence"
    REM COMPOSER ""
    INDEX 00 04:57:10
FILE "07 - My Despair (Crashtv Remix).wav" WAVE
    INDEX 01 00:00:00
  TRACK 08 AUDIO
    TITLE "Promised Land (MC1R Remix)"
    PERFORMER "In Strict Confidence"
    REM COMPOSER ""
    INDEX 00 03:53:32
FILE "08 - Promised Land (MC1R Remix).wav" WAVE
    INDEX 01 00:00:00
  TRACK 09 AUDIO
    TITLE "Set Me Free (ASP Remix)"
    PERFORMER "In Strict Confidence"
    REM COMPOSER ""
    INDEX 00 02:40:32
FILE "09 - Set Me Free (ASP Remix).wav" WAVE
    INDEX 01 00:00:00
  TRACK 10 AUDIO
    TITLE "My Despair (Parralox Remix)"
    PERFORMER "In Strict Confidence"
    REM COMPOSER ""
    INDEX 00 05:31:46
FILE "10 - My Despair (Parralox Remix).wav" WAVE
    INDEX 01 00:00:00
  TRACK 11 AUDIO
    TITLE "Am Abgrund (Samsas Traum Remix)"
    PERFORMER "In Strict Confidence"
    REM COMPOSER ""
    INDEX 00 05:55:03
FILE "11 - Am Abgrund (Samsas Traum Remix).wav" WAVE
    INDEX 01 00:00:00
  TRACK 12 AUDIO
    TITLE "My Depair (Mind:Shredder Remix)"
    PERFORMER "In Strict Confidence"
    REM COMPOSER ""
    INDEX 00 04:51:34
FILE "12 - My Depair (Mind-Shredder Remix).wav" WAVE
    INDEX 01 00:00:00
  TRACK 13 AUDIO
    TITLE "Lazarus"
    PERFORMER "In Strict Confidence"
    REM COMPOSER ""
    INDEX 00 04:35:03
FILE "13 - Lazarus.wav" WAVE
    INDEX 01 00:00:00
  TRACK 14 MODEx/2xxx
    TITLE "Silver Bullets (Videoclip)"
    PERFORMER "In Strict Confidence"
    REM COMPOSER ""
    INDEX 00 02:18:00
Файл In Strict Confidence - Set Me Free.cue - рабочий CUE для записи альбома на CD.
Файл In Strict Confidence - Set Me Free (No Edit).cue - оригинальный CUE, сгенерированный ЕАС, годится только для проверки.
В папке Extra находится мультимедийная часть данного издания.
Формат: MPG4
Видео кодек: MPEG4 Video (H264)
Аудио кодек: AAC
Видео: 640*360 (16:9), 25 fps, 1519 Kbps
Аудио: 44100 Hz, 2 ch, 130 Kbps
Правила, инструкции, FAQ!!!
Торрент  Добавлен [26 июн 2020, 20:44] Скачать торрент Магнет ссылка
Скачать торрент
[ Размер 16.5 КБ / Просмотров 10 ]

Статус
Проверен 
 
Размер  1.28 ГБ
Приватный: Нет (DHT включён)
.torrent скачан  0
 


     Отправить личное сообщение
   
Страница 1 из 1
Показать сообщения за:  Поле сортировки  
Начать новую тему Ответить на тему


Сейчас этот форум просматривают: нет зарегистрированных пользователей и гости: 0


Вы не можете начинать темы
Вы не можете отвечать на сообщения
Вы не можете редактировать свои сообщения
Вы не можете удалять свои сообщения
Вы не можете добавлять вложения

Перейти:  
cron