Начать новую тему Ответить на тему
Статистика раздачи
Размер: 1.16 ГБ | Добавлен: 26 июн 2020, 20:10 | Скачали: 0
Сидеров: 0  [0 байт/сек]    Личеров: 0  [0 байт/сек]
Пред. тема | След. тема 

Автор
Сообщение

СообщениеДобавлено: 26 июн 2020, 20:10 

Ответить с цитатой 

In Strict Confidence - Mistrust The Angels (Collected Works) (3CD Box Set)
Жанр: EBM, Industrial, Electronic
Носитель: CD
Год выпуска диска: 2015
Издатель (лейбл): Minuswelt Musikfabrik
Каталожный номер: minus051
Страна-производитель диска: Germany
Аудиокодек: FLAC (*.flac)
Тип рипа: tracks+.cue
Битрейт аудио: lossless
Продолжительность: 3 ~ 02:43:52
Источник (релизер): Собственный диск
Наличие сканов в содержимом раздачи: нет
#777Трэклист:
01 Send A Sign 5:42
02 Herzattacke 6:56
03 Au Milieu Des Anges 6:58
04 Engelsstaub (Single Version) 4:53
05 When The Heart Starts To Bleed 5:56
06 Schlecht Geträumt 4:56
07 Horizont 6:00
08 Lost In The Night 6:05
09 It Seems Lost... 0:05
10 Der Vampir Und Dessen Verwandlung 6:55
11 Der Tag An Dem Es Frösche Regnet 3:36
12 The Prayers Of The Mute 5:08
13 Herzattacke (AndyK Remix) 3:17
14 Au Milieu Des Anges (Deep In Dust Mix) 6:42
15 ...It Seems Lost (Found Again) 4:38
Код:
Exact Audio Copy V1.2 from 12. August 2016
EAC extraction logfile from 26. August 2016, 12:59
In Strict Confidence / Mistrust The Angels (Bonus Edition)
Used drive  : HL-DT-STDVDRAM GH24NSC0   Adapter: 2  ID: 1
Read mode               : Secure
Utilize accurate stream : Yes
Defeat audio cache      : Yes
Make use of C2 pointers : No
Read offset correction                      : 6
Overread into Lead-In and Lead-Out          : No
Fill up missing offset samples with silence : Yes
Delete leading and trailing silent blocks   : No
Null samples used in CRC calculations       : Yes
Used interface                              : Native Win32 interface for Win NT & 2000
Gap handling                                : Appended to previous track
Used output format              : User Defined Encoder
Selected bitrate                : 128 kBit/s
Quality                         : High
Add ID3 tag                     : No
Command line compressor         : C:\Program Files (x86)\Exact Audio Copy\Flac\flac.exe
Additional command line options : -8 -V -T "ARTIST=%artist%" -T "TITLE=%title%" -T "ALBUM=%albumtitle%" -T "DATE=%year%" -T "TRACKNUMBER=%tracknr%" -T "GENRE=%genre%" -T "PERFORMER=%albuminterpret%" -T "COMPOSER=%composer%" %haslyrics%--tag-from-file=LYRICS="%lyricsfile%"%haslyrics% -T "ALBUMARTIST=%albumartist%" -T "DISCNUMBER=%cdnumber%" -T "TOTALDISCS=%totalcds%" -T "TOTALTRACKS=%numtracks%" -T "COMMENT=%comment%" %source% -o %dest%
TOC of the extracted CD
     Track |   Start  |  Length  | Start sector | End sector
    ---------------------------------------------------------
        1  |  0:00.00 |  5:42.14 |         0    |    25663
        2  |  5:42.14 |  6:57.27 |     25664    |    56965
        3  | 12:39.41 |  6:59.00 |     56966    |    88390
        4  | 19:38.41 |  4:54.27 |     88391    |   110467
        5  | 24:32.68 |  5:56.53 |    110468    |   137220
        6  | 30:29.46 |  4:56.26 |    137221    |   159446
        7  | 35:25.72 |  6:00.44 |    159447    |   186490
        8  | 41:26.41 |  6:05.12 |    186491    |   213877
        9  | 47:31.53 |  0:05.20 |    213878    |   214272
       10  | 47:36.73 |  6:55.05 |    214273    |   245402
       11  | 54:32.03 |  3:36.16 |    245403    |   261618
       12  | 58:08.19 |  5:09.10 |    261619    |   284803
       13  | 63:17.29 |  3:17.43 |    284804    |   299621
       14  | 66:34.72 |  6:42.46 |    299622    |   329817
       15  | 73:17.43 |  4:38.04 |    329818    |   350671
Track  1
     Filename M:\01 - Send A Sign.wav
     Pre-gap length  0:00:02.00
     Peak level 98.5 %
     Extraction speed 5.0 X
     Track quality 100.0 %
     Test CRC E1F11984
     Copy CRC E1F11984
     Accurately ripped (confidence 1)  [DD818968]  (AR v2)
     Copy OK
Track  2
     Filename M:\02 - Herzattacke.wav
     Peak level 99.0 %
     Extraction speed 5.8 X
     Track quality 100.0 %
     Test CRC B6773BD9
     Copy CRC B6773BD9
     Accurately ripped (confidence 1)  [CA3E1228]  (AR v2)
     Copy OK
Track  3
     Filename M:\03 - Au Milieu Des Anges.wav
     Pre-gap length  0:00:00.37
     Peak level 99.0 %
     Extraction speed 6.4 X
     Track quality 100.0 %
     Test CRC B7EE3B92
     Copy CRC B7EE3B92
     Accurately ripped (confidence 1)  [B10EE01B]  (AR v2)
     Copy OK
Track  4
     Filename M:\04 - Engelsstaub (Single Version).wav
     Pre-gap length  0:00:00.37
     Peak level 100.0 %
     Extraction speed 6.8 X
     Track quality 100.0 %
     Test CRC 0FD364A5
     Copy CRC 0FD364A5
     Accurately ripped (confidence 1)  [5366F14A]  (AR v2)
     Copy OK
Track  5
     Filename M:\05 - When The Heart Starts To Bleed.wav
     Pre-gap length  0:00:00.37
     Peak level 88.2 %
     Extraction speed 7.3 X
     Track quality 100.0 %
     Test CRC 012F6800
     Copy CRC 012F6800
     Accurately ripped (confidence 1)  [421D2CD5]  (AR v2)
     Copy OK
Track  6
     Filename M:\06 - Schlecht Geträumt.wav
     Pre-gap length  0:00:00.37
     Peak level 99.0 %
     Extraction speed 7.5 X
     Track quality 100.0 %
     Test CRC 95B37359
     Copy CRC 95B37359
     Accurately ripped (confidence 1)  [62E072C1]  (AR v2)
     Copy OK
Track  7
     Filename M:\07 - Horizont.wav
     Peak level 99.0 %
     Extraction speed 8.0 X
     Track quality 100.0 %
     Test CRC 42C48C48
     Copy CRC 42C48C48
     Accurately ripped (confidence 1)  [A6A98DDA]  (AR v2)
     Copy OK
Track  8
     Filename M:\08 - Lost In The Night.wav
     Peak level 99.0 %
     Extraction speed 8.4 X
     Track quality 100.0 %
     Test CRC 75C992C7
     Copy CRC 75C992C7
     Accurately ripped (confidence 1)  [28C1856A]  (AR v2)
     Copy OK
Track  9
     Filename M:\09 - It Seems Lost....wav
     Peak level 0.0 %
     Extraction speed 1.2 X
     Track quality 100.0 %
     Test CRC BD52ABBA
     Copy CRC BD52ABBA
     Track not present in AccurateRip database
     Copy OK
Track 10
     Filename M:\10 - Der Vampir Und Dessen Verwandlung.wav
     Peak level 99.0 %
     Extraction speed 8.8 X
     Track quality 100.0 %
     Test CRC 77D3E29B
     Copy CRC 77D3E29B
     Accurately ripped (confidence 1)  [D487A992]  (AR v2)
     Copy OK
Track 11
     Filename M:\11 - Der Tag An Dem Es Frösche Regnet.wav
     Peak level 99.0 %
     Extraction speed 8.5 X
     Track quality 100.0 %
     Test CRC 9BA4E19C
     Copy CRC 9BA4E19C
     Accurately ripped (confidence 1)  [BEAC6FE9]  (AR v2)
     Copy OK
Track 12
     Filename M:\12 - The Prayers Of The Mute.wav
     Peak level 99.0 %
     Extraction speed 9.0 X
     Track quality 100.0 %
     Test CRC BBC3E9B8
     Copy CRC BBC3E9B8
     Accurately ripped (confidence 1)  [20412AB7]  (AR v2)
     Copy OK
Track 13
     Filename M:\13 - Herzattacke (AndyK Remix).wav
     Pre-gap length  0:00:00.37
     Peak level 95.4 %
     Extraction speed 8.7 X
     Track quality 100.0 %
     Test CRC 706CB5CE
     Copy CRC 706CB5CE
     Accurately ripped (confidence 1)  [E4ED5D22]  (AR v2)
     Copy OK
Track 14
     Filename M:\14 - Au Milieu Des Anges (Deep In Dust Mix).wav
     Pre-gap length  0:00:00.37
     Peak level 100.0 %
     Extraction speed 9.8 X
     Track quality 100.0 %
     Test CRC 866E1559
     Copy CRC 866E1559
     Accurately ripped (confidence 1)  [4C0FCB23]  (AR v2)
     Copy OK
Track 15
     Filename M:\15 - ...It Seems Lost (Found Again).wav
     Pre-gap length  0:00:00.37
     Peak level 100.0 %
     Extraction speed 9.6 X
     Track quality 100.0 %
     Test CRC 7DF43108
     Copy CRC 7DF43108
     Accurately ripped (confidence 1)  [ADD158C9]  (AR v2)
     Copy OK
14 трек(и) скопированы точно
 1 трек(и) не содержатся в базе AccurateRip
Some tracks could not be verified as accurate
No errors occurred
End of status report
---- CUETools DB Plugin V2.1.6
[CTDB TOCID: tDhut_k9OLd0gnK1E3nocWD36gY-] found
Submit result: tDhut_k9OLd0gnK1E3nocWD36gY- has been confirmed
Track | CTDB Status
  1   | (4/4) Accurately ripped
  2   | (4/4) Accurately ripped
  3   | (4/4) Accurately ripped
  4   | (4/4) Accurately ripped
  5   | (4/4) Accurately ripped
  6   | (4/4) Accurately ripped
  7   | (4/4) Accurately ripped
  8   | (4/4) Accurately ripped
  9   | (4/4) Accurately ripped
 10   | (4/4) Accurately ripped
 11   | (4/4) Accurately ripped
 12   | (4/4) Accurately ripped
 13   | (4/4) Accurately ripped
 14   | (4/4) Accurately ripped
 15   | (4/4) Accurately ripped
==== Log checksum 5C8233894E11762EBB89843950061653DF0BDEC46F86949FD66FC2A37F81B76D ====
Код:
REM DATE 2002
REM DISCID FD12430F
REM COMMENT "ExactAudioCopy v1.2"
PERFORMER "In Strict Confidence"
TITLE "Mistrust The Angels (Bonus Edition)"
REM COMPOSER ""
FILE "01 - Send A Sign.wav" WAVE
  TRACK 01 AUDIO
    TITLE "Send A Sign"
    PERFORMER "In Strict Confidence"
    REM COMPOSER ""
    ISRC DEAY91200132
    FLAGS DCP
    INDEX 01 00:00:00
FILE "02 - Herzattacke.wav" WAVE
  TRACK 02 AUDIO
    TITLE "Herzattacke"
    PERFORMER "In Strict Confidence"
    REM COMPOSER ""
    ISRC DEAY91200133
    FLAGS DCP
    INDEX 01 00:00:00
  TRACK 03 AUDIO
    TITLE "Au Milieu Des Anges"
    PERFORMER "In Strict Confidence"
    REM COMPOSER ""
    ISRC DEAY91200134
    FLAGS DCP
    INDEX 00 06:56:65
FILE "03 - Au Milieu Des Anges.wav" WAVE
    INDEX 01 00:00:00
  TRACK 04 AUDIO
    TITLE "Engelsstaub (Single Version)"
    PERFORMER "In Strict Confidence"
    REM COMPOSER ""
    ISRC DEAY91200135
    FLAGS DCP
    INDEX 00 06:58:38
FILE "04 - Engelsstaub (Single Version).wav" WAVE
    INDEX 01 00:00:00
  TRACK 05 AUDIO
    TITLE "When The Heart Starts To Bleed"
    PERFORMER "In Strict Confidence"
    REM COMPOSER ""
    ISRC DEAY91200136
    FLAGS DCP
    INDEX 00 04:53:65
FILE "05 - When The Heart Starts To Bleed.wav" WAVE
    INDEX 01 00:00:00
  TRACK 06 AUDIO
    TITLE "Schlecht Geträumt"
    PERFORMER "In Strict Confidence"
    REM COMPOSER ""
    ISRC DEAY91200137
    FLAGS DCP
    INDEX 00 05:56:16
FILE "06 - Schlecht Geträumt.wav" WAVE
    INDEX 01 00:00:00
FILE "07 - Horizont.wav" WAVE
  TRACK 07 AUDIO
    TITLE "Horizont"
    PERFORMER "In Strict Confidence"
    REM COMPOSER ""
    ISRC DEAY91200138
    FLAGS DCP
    INDEX 01 00:00:00
FILE "08 - Lost In The Night.wav" WAVE
  TRACK 08 AUDIO
    TITLE "Lost In The Night"
    PERFORMER "In Strict Confidence"
    REM COMPOSER ""
    ISRC DEAY91200139
    FLAGS DCP
    INDEX 01 00:00:00
FILE "09 - It Seems Lost....wav" WAVE
  TRACK 09 AUDIO
    TITLE "It Seems Lost..."
    PERFORMER "In Strict Confidence"
    REM COMPOSER ""
    ISRC DEAY91200140
    FLAGS DCP
    INDEX 01 00:00:00
FILE "10 - Der Vampir Und Dessen Verwandlung.wav" WAVE
  TRACK 10 AUDIO
    TITLE "Der Vampir Und Dessen Verwandlung"
    PERFORMER "In Strict Confidence"
    REM COMPOSER ""
    ISRC DEAY91200141
    FLAGS DCP
    INDEX 01 00:00:00
FILE "11 - Der Tag An Dem Es Frösche Regnet.wav" WAVE
  TRACK 11 AUDIO
    TITLE "Der Tag An Dem Es Frösche Regnet"
    PERFORMER "In Strict Confidence"
    REM COMPOSER ""
    ISRC DEAY91200142
    FLAGS DCP
    INDEX 01 00:00:00
FILE "12 - The Prayers Of The Mute.wav" WAVE
  TRACK 12 AUDIO
    TITLE "The Prayers Of The Mute"
    PERFORMER "In Strict Confidence"
    REM COMPOSER ""
    ISRC DEAY91200143
    FLAGS DCP
    INDEX 01 00:00:00
  TRACK 13 AUDIO
    TITLE "Herzattacke (AndyK Remix)"
    PERFORMER "In Strict Confidence"
    REM COMPOSER ""
    ISRC DEAY91200144
    FLAGS DCP
    INDEX 00 05:08:48
FILE "13 - Herzattacke (AndyK Remix).wav" WAVE
    INDEX 01 00:00:00
  TRACK 14 AUDIO
    TITLE "Au Milieu Des Anges (Deep In Dust Mix)"
    PERFORMER "In Strict Confidence"
    REM COMPOSER ""
    ISRC DEAY91200145
    FLAGS DCP
    INDEX 00 03:17:06
FILE "14 - Au Milieu Des Anges (Deep In Dust Mix).wav" WAVE
    INDEX 01 00:00:00
  TRACK 15 AUDIO
    TITLE "...It Seems Lost (Found Again)"
    PERFORMER "In Strict Confidence"
    REM COMPOSER ""
    ISRC DEAY91200146
    FLAGS DCP
    INDEX 00 06:42:09
FILE "15 - ...It Seems Lost (Found Again).wav" WAVE
    INDEX 01 00:00:00
#777Трэклист:
01 Herzattacke (Extended Version) 8:34
02 Herzattacke (Club Mix) 7:43
03 Into Ashes 5:34
04 Kaleidoskop 6:41
05 Herzattacke (Clan Of Xymox Remix) 8:14
06 Herzattacke (C.P.R. Mix) 5:57
07 The Final Embrace 3:26
08 Herzattacke (Single Version) 4:35
Код:
Exact Audio Copy V1.2 from 12. August 2016
EAC extraction logfile from 26. August 2016, 12:30
In Strict Confidence / Herzattacke
Used drive  : HL-DT-STDVDRAM GH24NSC0   Adapter: 2  ID: 1
Read mode               : Secure
Utilize accurate stream : Yes
Defeat audio cache      : Yes
Make use of C2 pointers : No
Read offset correction                      : 6
Overread into Lead-In and Lead-Out          : No
Fill up missing offset samples with silence : Yes
Delete leading and trailing silent blocks   : No
Null samples used in CRC calculations       : Yes
Used interface                              : Native Win32 interface for Win NT & 2000
Gap handling                                : Appended to previous track
Used output format              : User Defined Encoder
Selected bitrate                : 128 kBit/s
Quality                         : High
Add ID3 tag                     : No
Command line compressor         : C:\Program Files (x86)\Exact Audio Copy\Flac\flac.exe
Additional command line options : -8 -V -T "ARTIST=%artist%" -T "TITLE=%title%" -T "ALBUM=%albumtitle%" -T "DATE=%year%" -T "TRACKNUMBER=%tracknr%" -T "GENRE=%genre%" -T "PERFORMER=%albuminterpret%" -T "COMPOSER=%composer%" %haslyrics%--tag-from-file=LYRICS="%lyricsfile%"%haslyrics% -T "ALBUMARTIST=%albumartist%" -T "DISCNUMBER=%cdnumber%" -T "TOTALDISCS=%totalcds%" -T "TOTALTRACKS=%numtracks%" -T "COMMENT=%comment%" %source% -o %dest%
TOC of the extracted CD
     Track |   Start  |  Length  | Start sector | End sector
    ---------------------------------------------------------
        1  |  0:00.00 |  8:34.68 |         0    |    38617
        2  |  8:34.68 |  7:43.06 |     38618    |    73348
        3  | 16:17.74 |  5:34.25 |     73349    |    98423
        4  | 21:52.24 |  6:41.24 |     98424    |   128522
        5  | 28:33.48 |  8:14.57 |    128523    |   165629
        6  | 36:48.30 |  5:57.74 |    165630    |   192478
        7  | 42:46.29 |  3:26.41 |    192479    |   207969
        8  | 46:12.70 |  4:35.28 |    207970    |   228622
Track  1
     Filename M:\01 - Herzattacke (Extended Version).wav
     Pre-gap length  0:00:02.00
     Peak level 100.0 %
     Extraction speed 4.6 X
     Track quality 99.9 %
     Test CRC 5DECD39C
     Copy CRC 5DECD39C
     Accurately ripped (confidence 10)  [59F7551A]  (AR v2)
     Copy OK
Track  2
     Filename M:\02 - Herzattacke (Club Mix).wav
     Pre-gap length  0:00:01.45
     Peak level 100.0 %
     Extraction speed 5.8 X
     Track quality 100.0 %
     Test CRC 74775A94
     Copy CRC 74775A94
     Accurately ripped (confidence 10)  [D6949387]  (AR v2)
     Copy OK
Track  3
     Filename M:\03 - Into Ashes.wav
     Pre-gap length  0:00:01.45
     Peak level 100.0 %
     Extraction speed 5.7 X
     Track quality 99.9 %
     Test CRC 255D9FF7
     Copy CRC 255D9FF7
     Accurately ripped (confidence 10)  [4A132CE7]  (AR v2)
     Copy OK
Track  4
     Filename M:\04 - Kaleidoskop.wav
     Peak level 100.0 %
     Extraction speed 6.8 X
     Track quality 100.0 %
     Test CRC B7ECB29B
     Copy CRC B7ECB29B
     Accurately ripped (confidence 10)  [3EF2DD8F]  (AR v2)
     Copy OK
Track  5
     Filename M:\05 - Herzattacke (Clan Of Xymox Remix).wav
     Pre-gap length  0:00:01.45
     Peak level 100.0 %
     Extraction speed 7.4 X
     Track quality 100.0 %
     Test CRC D37E1201
     Copy CRC D37E1201
     Accurately ripped (confidence 10)  [AD9C25A3]  (AR v2)
     Copy OK
Track  6
     Filename M:\06 - Herzattacke (C.P.R. Mix).wav
     Pre-gap length  0:00:01.45
     Peak level 100.0 %
     Extraction speed 7.8 X
     Track quality 100.0 %
     Test CRC 35DE9262
     Copy CRC 35DE9262
     Accurately ripped (confidence 10)  [8C3A3257]  (AR v2)
     Copy OK
Track  7
     Filename M:\07 - The Final Embrace.wav
     Peak level 100.0 %
     Extraction speed 7.5 X
     Track quality 100.0 %
     Test CRC 11924232
     Copy CRC 11924232
     Accurately ripped (confidence 10)  [5DB5CA66]  (AR v2)
     Copy OK
Track  8
     Filename M:\08 - Herzattacke (Single Version).wav
     Pre-gap length  0:00:01.45
     Peak level 100.0 %
     Extraction speed 8.0 X
     Track quality 100.0 %
     Test CRC 71A0D536
     Copy CRC 71A0D536
     Accurately ripped (confidence 10)  [D41DBC81]  (AR v2)
     Copy OK
All tracks accurately ripped
No errors occurred
End of status report
---- CUETools DB Plugin V2.1.6
[CTDB TOCID: rCXenSJJYUBYJvq3n6mXmECCd_A-] found
Submit result: rCXenSJJYUBYJvq3n6mXmECCd_A- has been confirmed
Track | CTDB Status
  1   | (16/16) Accurately ripped
  2   | (16/16) Accurately ripped
  3   | (15/16) Accurately ripped
  4   | (15/16) Accurately ripped
  5   | (16/16) Accurately ripped
  6   | (15/16) Accurately ripped
  7   | (15/16) Accurately ripped
  8   | (16/16) Accurately ripped
==== Log checksum 7420A658AD3BA7B7A70535945F64D436B8DF5E9F3151465389BA74FCBC017006 ====
Код:
REM GENRE Electronic
REM DATE 2002
REM DISCID 6C0BE808
REM COMMENT "ExactAudioCopy v1.2"
PERFORMER "In Strict Confidence"
TITLE "Herzattacke"
REM COMPOSER ""
FILE "01 - Herzattacke (Extended Version).wav" WAVE
  TRACK 01 AUDIO
    TITLE "Herzattacke (Extended Version)"
    PERFORMER "In Strict Confidence"
    REM COMPOSER ""
    INDEX 01 00:00:00
  TRACK 02 AUDIO
    TITLE "Herzattacke (Club Mix)"
    PERFORMER "In Strict Confidence"
    REM COMPOSER ""
    INDEX 00 08:33:23
FILE "02 - Herzattacke (Club Mix).wav" WAVE
    INDEX 01 00:00:00
  TRACK 03 AUDIO
    TITLE "Into Ashes"
    PERFORMER "In Strict Confidence"
    REM COMPOSER ""
    INDEX 00 07:41:36
FILE "03 - Into Ashes.wav" WAVE
    INDEX 01 00:00:00
FILE "04 - Kaleidoskop.wav" WAVE
  TRACK 04 AUDIO
    TITLE "Kaleidoskop"
    PERFORMER "In Strict Confidence"
    REM COMPOSER ""
    INDEX 01 00:00:00
  TRACK 05 AUDIO
    TITLE "Herzattacke (Clan Of Xymox Remix)"
    PERFORMER "In Strict Confidence"
    REM COMPOSER ""
    INDEX 00 06:39:54
FILE "05 - Herzattacke (Clan Of Xymox Remix).wav" WAVE
    INDEX 01 00:00:00
  TRACK 06 AUDIO
    TITLE "Herzattacke (C.P.R. Mix)"
    PERFORMER "In Strict Confidence"
    REM COMPOSER ""
    INDEX 00 08:13:12
FILE "06 - Herzattacke (C.P.R. Mix).wav" WAVE
    INDEX 01 00:00:00
FILE "07 - The Final Embrace.wav" WAVE
  TRACK 07 AUDIO
    TITLE "The Final Embrace"
    PERFORMER "In Strict Confidence"
    REM COMPOSER ""
    INDEX 01 00:00:00
  TRACK 08 AUDIO
    TITLE "Herzattacke (Single Version)"
    PERFORMER "In Strict Confidence"
    REM COMPOSER ""
    INDEX 00 03:24:71
FILE "08 - Herzattacke (Single Version).wav" WAVE
    INDEX 01 00:00:00
#777Трэклист:
01 Engelsstaub (Extended ISC Version) 6:20
02 Engelsstaub (Dkay.com "Electroclash" Remix) 4:01
03 Brüder (ISC Version) 6:19
04 Auriez Vous Peur Du Passé? 3:08
05 Engelsstaub (Stevedragon Mix) 5:10
06 Kiss Of Death 10:10
Код:
Exact Audio Copy V1.2 from 12. August 2016
EAC extraction logfile from 26. August 2016, 11:42
In Strict Confidence / Engelsstaub
Used drive  : HL-DT-STDVDRAM GH24NSC0   Adapter: 2  ID: 1
Read mode               : Secure
Utilize accurate stream : Yes
Defeat audio cache      : Yes
Make use of C2 pointers : No
Read offset correction                      : 6
Overread into Lead-In and Lead-Out          : No
Fill up missing offset samples with silence : Yes
Delete leading and trailing silent blocks   : No
Null samples used in CRC calculations       : Yes
Used interface                              : Native Win32 interface for Win NT & 2000
Gap handling                                : Appended to previous track
Used output format              : User Defined Encoder
Selected bitrate                : 128 kBit/s
Quality                         : High
Add ID3 tag                     : No
Command line compressor         : C:\Program Files (x86)\Exact Audio Copy\Flac\flac.exe
Additional command line options : -8 -V -T "ARTIST=%artist%" -T "TITLE=%title%" -T "ALBUM=%albumtitle%" -T "DATE=%year%" -T "TRACKNUMBER=%tracknr%" -T "GENRE=%genre%" -T "PERFORMER=%albuminterpret%" -T "COMPOSER=%composer%" %haslyrics%--tag-from-file=LYRICS="%lyricsfile%"%haslyrics% -T "ALBUMARTIST=%albumartist%" -T "DISCNUMBER=%cdnumber%" -T "TOTALDISCS=%totalcds%" -T "TOTALTRACKS=%numtracks%" -T "COMMENT=%comment%" %source% -o %dest%
TOC of the extracted CD
     Track |   Start  |  Length  | Start sector | End sector
    ---------------------------------------------------------
        1  |  0:00.00 |  6:20.49 |         0    |    28548
        2  |  6:20.49 |  4:01.32 |     28549    |    46655
        3  | 10:22.06 |  6:19.34 |     46656    |    75114
        4  | 16:41.40 |  3:08.12 |     75115    |    89226
        5  | 19:49.52 |  5:10.10 |     89227    |   112486
        6  | 24:59.62 | 10:08.34 |    112487    |   158120
        7  | 37:40.21 |  4:16.70 |    169521    |   188790
Track  1
     Filename M:\01 - Engelsstaub (Extended ISC Version).wav
     Pre-gap length  0:00:02.00
     Peak level 100.0 %
     Extraction speed 5.4 X
     Track quality 100.0 %
     Test CRC DC406F25
     Copy CRC DC406F25
     Accurately ripped (confidence 6)  [7C9DCF7D]  (AR v2)
     Copy OK
Track  2
     Filename M:\02 - Engelsstaub (Dkay.com ''Electroclash'' Remix).wav
     Pre-gap length  0:00:02.00
     Peak level 100.0 %
     Extraction speed 5.9 X
     Track quality 100.0 %
     Test CRC 260DDB09
     Copy CRC 260DDB09
     Accurately ripped (confidence 6)  [BA455401]  (AR v2)
     Copy OK
Track  3
     Filename M:\03 - Brüder (ISC Version).wav
     Pre-gap length  0:00:02.00
     Peak level 100.0 %
     Extraction speed 6.3 X
     Track quality 99.9 %
     Test CRC 2333F9C5
     Copy CRC 2333F9C5
     Accurately ripped (confidence 6)  [2B1EDA6D]  (AR v2)
     Copy OK
Track  4
     Filename M:\04 - Auriez Vous Peur Du Passé.wav
     Pre-gap length  0:00:02.00
     Peak level 100.0 %
     Extraction speed 6.7 X
     Track quality 100.0 %
     Test CRC 5FFA070E
     Copy CRC 5FFA070E
     Accurately ripped (confidence 6)  [D0622946]  (AR v2)
     Copy OK
Track  5
     Filename M:\05 - Engelsstaub (Stevedragon Mix).wav
     Pre-gap length  0:00:02.00
     Peak level 100.0 %
     Extraction speed 7.6 X
     Track quality 100.0 %
     Test CRC E49EF132
     Copy CRC E49EF132
     Accurately ripped (confidence 6)  [8C5FA2AE]  (AR v2)
     Copy OK
Track  6
     Filename M:\06 - Kiss Of Death.wav
     Pre-gap length  0:00:02.00
     Peak level 100.0 %
     Extraction speed 8.6 X
     Track quality 100.0 %
     Test CRC 539FFF3D
     Copy CRC 539FFF3D
     Accurately ripped (confidence 6)  [53EE8268]  (AR v2)
     Copy OK
All tracks accurately ripped
No errors occurred
End of status report
---- CUETools DB Plugin V2.1.6
[CTDB TOCID: zWVg3Zbmz1KOtgayxjK5cBc9iQ4-] found
Submit result: zWVg3Zbmz1KOtgayxjK5cBc9iQ4- has been confirmed
Track | CTDB Status
  1   | (10/10) Accurately ripped
  2   | (10/10) Accurately ripped
  3   | (10/10) Accurately ripped
  4   | (10/10) Accurately ripped
  5   | (10/10) Accurately ripped
  6   | (10/10) Accurately ripped
==== Log checksum D1442B516C94A7010CDD28DF320376EE63A24E9D7038C9485310DAA0DDD2F309 ====
Код:
REM GENRE Electronic
REM DATE 2003
REM DISCID 3E09D507
REM COMMENT "ExactAudioCopy v1.2"
PERFORMER "In Strict Confidence"
TITLE "Engelsstaub"
REM COMPOSER ""
FILE "01 - Engelsstaub (Extended ISC Version).wav" WAVE
  TRACK 01 AUDIO
    TITLE "Engelsstaub (Extended ISC Version)"
    PERFORMER "In Strict Confidence"
    REM COMPOSER ""
    INDEX 01 00:00:00
  TRACK 02 AUDIO
    TITLE "Engelsstaub (Dkay.com ''Electroclash'' Remix)"
    PERFORMER "In Strict Confidence"
    REM COMPOSER ""
    INDEX 00 06:18:49
FILE "02 - Engelsstaub (Dkay.com ''Electroclash'' Remix).wav" WAVE
    INDEX 01 00:00:00
  TRACK 03 AUDIO
    TITLE "Brüder (ISC Version)"
    PERFORMER "In Strict Confidence"
    REM COMPOSER ""
    INDEX 00 03:59:32
FILE "03 - Brüder (ISC Version).wav" WAVE
    INDEX 01 00:00:00
  TRACK 04 AUDIO
    TITLE "Auriez Vous Peur Du Passé?"
    PERFORMER "In Strict Confidence"
    REM COMPOSER ""
    INDEX 00 06:17:34
FILE "04 - Auriez Vous Peur Du Passé.wav" WAVE
    INDEX 01 00:00:00
  TRACK 05 AUDIO
    TITLE "Engelsstaub (Stevedragon Mix)"
    PERFORMER "In Strict Confidence"
    REM COMPOSER ""
    INDEX 00 03:06:12
FILE "05 - Engelsstaub (Stevedragon Mix).wav" WAVE
    INDEX 01 00:00:00
  TRACK 06 AUDIO
    TITLE "Kiss Of Death"
    PERFORMER "In Strict Confidence"
    REM COMPOSER ""
    INDEX 00 05:08:10
FILE "06 - Kiss Of Death.wav" WAVE
    INDEX 01 00:00:00
Код:
REM GENRE Electronic
REM DATE 2003
REM DISCID 3E09D507
REM COMMENT "ExactAudioCopy v1.2"
PERFORMER "In Strict Confidence"
TITLE "Engelsstaub"
REM COMPOSER ""
FILE "01 - Engelsstaub (Extended ISC Version).wav" WAVE
  TRACK 01 AUDIO
    TITLE "Engelsstaub (Extended ISC Version)"
    PERFORMER "In Strict Confidence"
    REM COMPOSER ""
    INDEX 01 00:00:00
  TRACK 02 AUDIO
    TITLE "Engelsstaub (Dkay.com ''Electroclash'' Remix)"
    PERFORMER "In Strict Confidence"
    REM COMPOSER ""
    INDEX 00 06:18:49
FILE "02 - Engelsstaub (Dkay.com ''Electroclash'' Remix).wav" WAVE
    INDEX 01 00:00:00
  TRACK 03 AUDIO
    TITLE "Brüder (ISC Version)"
    PERFORMER "In Strict Confidence"
    REM COMPOSER ""
    INDEX 00 03:59:32
FILE "03 - Brüder (ISC Version).wav" WAVE
    INDEX 01 00:00:00
  TRACK 04 AUDIO
    TITLE "Auriez Vous Peur Du Passé?"
    PERFORMER "In Strict Confidence"
    REM COMPOSER ""
    INDEX 00 06:17:34
FILE "04 - Auriez Vous Peur Du Passé.wav" WAVE
    INDEX 01 00:00:00
  TRACK 05 AUDIO
    TITLE "Engelsstaub (Stevedragon Mix)"
    PERFORMER "In Strict Confidence"
    REM COMPOSER ""
    INDEX 00 03:06:12
FILE "05 - Engelsstaub (Stevedragon Mix).wav" WAVE
    INDEX 01 00:00:00
  TRACK 06 AUDIO
    TITLE "Kiss Of Death"
    PERFORMER "In Strict Confidence"
    REM COMPOSER ""
    INDEX 00 05:08:10
FILE "06 - Kiss Of Death.wav" WAVE
    INDEX 01 00:00:00
  TRACK 07 MODEx/2xxx
    TITLE "[data track]"
    PERFORMER "In Strict Confidence"
    REM COMPOSER ""
    INDEX 00 10:08:34
Файл In Strict Confidence - Engelsstaub.cue - рабочий CUE для записи альбома на CD.
Файл In Strict Confidence - Engelsstaub (No Edit).cue - оригинальный CUE, сгенерированный ЕАС, годится только для проверки.
В папке Extra находится мультимедийная часть данного издания.
Формат: MPG
Видео кодек: MPEG 1
Аудио кодек: MPEG-1 Audio layer 2
Видео: 352*288 (4:3), 25 fps, 1150 Kbps
Аудио: 44100 Hz, 2 ch, 224 Kbps
Правила, инструкции, FAQ!!!
Торрент  Добавлен [26 июн 2020, 20:10] Скачать торрент Магнет ссылка
Скачать торрент
[ Размер 15.01 КБ / Просмотров 7 ]

Статус
Проверен 
 
Размер  1.16 ГБ
Приватный: Нет (DHT включён)
.torrent скачан  0
 


     Отправить личное сообщение
   
Страница 1 из 1
Показать сообщения за:  Поле сортировки  
Начать новую тему Ответить на тему


Сейчас этот форум просматривают: нет зарегистрированных пользователей и гости: 0


Вы не можете начинать темы
Вы не можете отвечать на сообщения
Вы не можете редактировать свои сообщения
Вы не можете удалять свои сообщения
Вы не можете добавлять вложения

Перейти:  
cron