Начать новую тему Ответить на тему
Статистика раздачи
Размер: 537.5 МБ | Добавлен: 26 июн 2020, 20:19 | Скачали: 0
Сидеров: 0  [0 байт/сек]    Личеров: 0  [0 байт/сек]
Пред. тема | След. тема 

Автор
Сообщение

СообщениеДобавлено: 26 июн 2020, 20:19 

Ответить с цитатой 

In Strict Confidence - Lifelines Vol. 02 (1998-2004)
Жанр: EBM, Industrial, Electronic
Носитель: CD
Год выпуска диска: 2014
Издатель (лейбл): Minuswelt Musikfabrik
Каталожный номер: minus049
Страна-производитель диска: Germany
Аудиокодек: FLAC (*.flac)
Тип рипа: tracks+.cue
Битрейт аудио: lossless
Продолжительность: 73:59
Источник (релизер): Собственный диск
Наличие сканов в содержимом раздачи: нет

Треклист:
01. Zauberschloss (2000) 7:29
02. Seven Lives (2004) 7:20
03. Engelsstaub (2002) 6:22
04. Kiss You Shadow (2000) 5:57
05. Hidden Thoughts (1998) 7:19
06. Babylon (2004) 6:52
07. Another Night (2004) 7:29
08. Closing Eyes (2004) 7:54
09. Herzattacke (2002) 8:36
10. The Truth Inside Of Me (2002) 8:36
Код:
Exact Audio Copy V1.2 from 12. August 2016
EAC extraction logfile from 17. August 2016, 10:39
In Strict Confidence / Lifelines Vol.2 (1998-2004)
Used drive  : HL-DT-STDVDRAM GH24NSC0   Adapter: 2  ID: 1
Read mode               : Secure
Utilize accurate stream : Yes
Defeat audio cache      : Yes
Make use of C2 pointers : No
Read offset correction                      : 6
Overread into Lead-In and Lead-Out          : No
Fill up missing offset samples with silence : Yes
Delete leading and trailing silent blocks   : No
Null samples used in CRC calculations       : Yes
Used interface                              : Native Win32 interface for Win NT & 2000
Gap handling                                : Appended to previous track
Used output format              : User Defined Encoder
Selected bitrate                : 128 kBit/s
Quality                         : High
Add ID3 tag                     : No
Command line compressor         : C:\Program Files (x86)\Exact Audio Copy\Flac\flac.exe
Additional command line options : -8 -V -T "ARTIST=%artist%" -T "TITLE=%title%" -T "ALBUM=%albumtitle%" -T "DATE=%year%" -T "TRACKNUMBER=%tracknr%" -T "GENRE=%genre%" -T "PERFORMER=%albuminterpret%" -T "COMPOSER=%composer%" %haslyrics%--tag-from-file=LYRICS="%lyricsfile%"%haslyrics% -T "ALBUMARTIST=%albumartist%" -T "DISCNUMBER=%cdnumber%" -T "TOTALDISCS=%totalcds%" -T "TOTALTRACKS=%numtracks%" -T "COMMENT=%comment%" %source% -o %dest%
TOC of the extracted CD
     Track |   Start  |  Length  | Start sector | End sector
    ---------------------------------------------------------
        1  |  0:00.00 |  7:29.18 |         0    |    33692
        2  |  7:29.18 |  7:20.15 |     33693    |    66707
        3  | 14:49.33 |  6:22.50 |     66708    |    95407
        4  | 21:12.08 |  5:57.71 |     95408    |   122253
        5  | 27:10.04 |  7:19.00 |    122254    |   155178
        6  | 34:29.04 |  6:52.56 |    155179    |   186134
        7  | 41:21.60 |  7:29.46 |    186135    |   219855
        8  | 48:51.31 |  7:54.58 |    219856    |   255463
        9  | 56:46.14 |  8:36.69 |    255464    |   294232
       10  | 65:23.08 |  8:36.34 |    294233    |   332966
Track  1
     Filename M:\01 - Zauberschloss.wav
     Pre-gap length  0:00:02.00
     Peak level 100.0 %
     Extraction speed 5.0 X
     Track quality 100.0 %
     Test CRC 07360B23
     Copy CRC 07360B23
     Accurately ripped (confidence 5)  [BA9B8A69]  (AR v2)
     Copy OK
Track  2
     Filename M:\02 - Seven Lives.wav
     Pre-gap length  0:00:02.00
     Peak level 100.0 %
     Extraction speed 5.4 X
     Track quality 99.9 %
     Test CRC A41FF08A
     Copy CRC A41FF08A
     Accurately ripped (confidence 5)  [EAD1A201]  (AR v2)
     Copy OK
Track  3
     Filename M:\03 - Engelsstaub.wav
     Pre-gap length  0:00:02.00
     Peak level 100.0 %
     Extraction speed 6.4 X
     Track quality 100.0 %
     Test CRC A715AC3F
     Copy CRC A715AC3F
     Accurately ripped (confidence 5)  [B519BB15]  (AR v2)
     Copy OK
Track  4
     Filename M:\04 - Kiss You Shadow.wav
     Pre-gap length  0:00:02.00
     Peak level 99.4 %
     Extraction speed 6.9 X
     Track quality 100.0 %
     Test CRC BC233C31
     Copy CRC BC233C31
     Accurately ripped (confidence 5)  [0AA02A96]  (AR v2)
     Copy OK
Track  5
     Filename M:\05 - Hidden Thoughts.wav
     Pre-gap length  0:00:02.00
     Peak level 100.0 %
     Extraction speed 7.3 X
     Track quality 100.0 %
     Test CRC 780F3FAA
     Copy CRC 780F3FAA
     Accurately ripped (confidence 5)  [B018E094]  (AR v2)
     Copy OK
Track  6
     Filename M:\06 - Babylon.wav
     Pre-gap length  0:00:02.00
     Peak level 99.0 %
     Extraction speed 7.7 X
     Track quality 100.0 %
     Test CRC 57981D10
     Copy CRC 57981D10
     Accurately ripped (confidence 5)  [F624C752]  (AR v2)
     Copy OK
Track  7
     Filename M:\07 - Another Night.wav
     Pre-gap length  0:00:02.00
     Peak level 100.0 %
     Extraction speed 8.3 X
     Track quality 100.0 %
     Test CRC AFD0A9A8
     Copy CRC AFD0A9A8
     Accurately ripped (confidence 5)  [EE772CD0]  (AR v2)
     Copy OK
Track  8
     Filename M:\08 - Closing Eyes.wav
     Pre-gap length  0:00:02.00
     Peak level 99.0 %
     Extraction speed 8.2 X
     Track quality 99.9 %
     Test CRC D0A50A69
     Copy CRC D0A50A69
     Accurately ripped (confidence 5)  [95A665A6]  (AR v2)
     Copy OK
Track  9
     Filename M:\09 - Herzattacke.wav
     Pre-gap length  0:00:02.00
     Peak level 100.0 %
     Extraction speed 8.7 X
     Track quality 99.9 %
     Test CRC 3CACA5CA
     Copy CRC 3CACA5CA
     Accurately ripped (confidence 5)  [5E4EC9CE]  (AR v2)
     Copy OK
Track 10
     Filename M:\10 - The Truth Inside Of Me.wav
     Pre-gap length  0:00:02.00
     Peak level 96.6 %
     Extraction speed 9.5 X
     Track quality 100.0 %
     Test CRC FFBB78C0
     Copy CRC FFBB78C0
     Accurately ripped (confidence 5)  [B0246D15]  (AR v2)
     Copy OK
All tracks accurately ripped
No errors occurred
End of status report
---- CUETools DB Plugin V2.1.6
[CTDB TOCID: EpD7yYH913xyIQR2uKDTiWn0L8A-] found
Submit result: EpD7yYH913xyIQR2uKDTiWn0L8A- has been confirmed
Track | CTDB Status
  1   | (9/9) Accurately ripped
  2   | (9/9) Accurately ripped
  3   | (9/9) Accurately ripped
  4   | (9/9) Accurately ripped
  5   | (9/9) Accurately ripped
  6   | (9/9) Accurately ripped
  7   | (9/9) Accurately ripped
  8   | (9/9) Accurately ripped
  9   | (9/9) Accurately ripped
 10   | (9/9) Accurately ripped
==== Log checksum 2657DB370BB1DDED294AF7204149FC976B212C06A1BBE5AF3A9D89DDE04AE778 ====
Код:
REM GENRE Electronic
REM DATE 2014
REM DISCID 8611570A
REM COMMENT "ExactAudioCopy v1.2"
CATALOG 4046661339123
PERFORMER "In Strict Confidence"
TITLE "Lifelines Vol...2 (1998.-.2004)"
REM COMPOSER ""
FILE "01 - Zauberschloss.wav" WAVE
  TRACK 01 AUDIO
    TITLE "Zauberschloss"
    PERFORMER "In Strict Confidence"
    REM COMPOSER ""
    ISRC DEAY81299251
    INDEX 01 00:00:00
  TRACK 02 AUDIO
    TITLE "Seven Lives"
    PERFORMER "In Strict Confidence"
    REM COMPOSER ""
    ISRC DEAY81299252
    INDEX 00 07:27:18
FILE "02 - Seven Lives.wav" WAVE
    INDEX 01 00:00:00
  TRACK 03 AUDIO
    TITLE "Engelsstaub"
    PERFORMER "In Strict Confidence"
    REM COMPOSER ""
    ISRC DEAY81299253
    INDEX 00 07:18:15
FILE "03 - Engelsstaub.wav" WAVE
    INDEX 01 00:00:00
  TRACK 04 AUDIO
    TITLE "Kiss You Shadow"
    PERFORMER "In Strict Confidence"
    REM COMPOSER ""
    ISRC DEAY81299254
    INDEX 00 06:20:50
FILE "04 - Kiss You Shadow.wav" WAVE
    INDEX 01 00:00:00
  TRACK 05 AUDIO
    TITLE "Hidden Thoughts"
    PERFORMER "In Strict Confidence"
    REM COMPOSER ""
    ISRC DEAY81299255
    INDEX 00 05:55:71
FILE "05 - Hidden Thoughts.wav" WAVE
    INDEX 01 00:00:00
  TRACK 06 AUDIO
    TITLE "Babylon"
    PERFORMER "In Strict Confidence"
    REM COMPOSER ""
    ISRC DEAY81299256
    INDEX 00 07:17:00
FILE "06 - Babylon.wav" WAVE
    INDEX 01 00:00:00
  TRACK 07 AUDIO
    TITLE "Another Night"
    PERFORMER "In Strict Confidence"
    REM COMPOSER ""
    ISRC DEAY81299257
    INDEX 00 06:50:56
FILE "07 - Another Night.wav" WAVE
    INDEX 01 00:00:00
  TRACK 08 AUDIO
    TITLE "Closing Eyes"
    PERFORMER "In Strict Confidence"
    REM COMPOSER ""
    ISRC DEAY81299258
    INDEX 00 07:27:46
FILE "08 - Closing Eyes.wav" WAVE
    INDEX 01 00:00:00
  TRACK 09 AUDIO
    TITLE "Herzattacke"
    PERFORMER "In Strict Confidence"
    REM COMPOSER ""
    ISRC DEAY81299259
    INDEX 00 07:52:58
FILE "09 - Herzattacke.wav" WAVE
    INDEX 01 00:00:00
  TRACK 10 AUDIO
    TITLE "The Truth Inside Of Me"
    PERFORMER "In Strict Confidence"
    REM COMPOSER ""
    ISRC DEAY81299260
    INDEX 00 08:34:69
FILE "10 - The Truth Inside Of Me.wav" WAVE
    INDEX 01 00:00:00
Правила, инструкции, FAQ!!!
Торрент  Добавлен [26 июн 2020, 20:19] Скачать торрент Магнет ссылка
Скачать торрент
[ Размер 11.8 КБ / Просмотров 5 ]

Статус
Проверен 
 
Размер  537.5 МБ
Приватный: Нет (DHT включён)
.torrent скачан  0
 


     Отправить личное сообщение
   
Страница 1 из 1
Показать сообщения за:  Поле сортировки  
Начать новую тему Ответить на тему


Сейчас этот форум просматривают: нет зарегистрированных пользователей и гости: 0


Вы не можете начинать темы
Вы не можете отвечать на сообщения
Вы не можете редактировать свои сообщения
Вы не можете удалять свои сообщения
Вы не можете добавлять вложения

Перейти:  
cron