Начать новую тему Ответить на тему
Статистика раздачи
Размер: 1.79 ГБ | Добавлен: 26 июн 2020, 20:18 | Скачали: 0
Сидеров: 0  [0 байт/сек]    Личеров: 0  [0 байт/сек]
Пред. тема | След. тема 

Автор
Сообщение

СообщениеДобавлено: 26 июн 2020, 20:18 

Ответить с цитатой 

NoiseBox - Studio Discography (3CD Albums & 1 CDEP)



Жанр: EBM, Industrial, Electronic
Страна-производитель диска: Germany / USA
Год выпуска диска: 1995, 1997
Издатель (лейбл): Off Beat / Cleopatra
Страна: USA
Аудиокодек: FLAC (*.flac)
Тип рипа: image+.cue
Битрейт аудио: lossless
Продолжительность: 4~03:33:20

Жанр: EBM, Industrial, Electronic
Страна-производитель диска: USA
Год выпуска диска: 1995
Дата выхода оригинального издания: 1995
Тип издания: CD, Album
Издатель (лейбл): Cleopatra
Номер по каталогу: CLEO95102
Продолжительность: 01:05:17
Источник (релизер): Собственный рип
Наличие сканов в содержимом раздачи: да, PNG 600dpi

Треклист
01. Deception [07:13]
02. Desire [03:44]
03. Killing Spree [02:49]
04. Skinner [03:36]
05. Tempted [04:07]
06. Suffer [03:33]
07. I Hate U [04:05]
08. Misery [03:02]
09. Some Of U [02:13]
10. Hopeless Desire [07:40]
11. Monkey Ass [02:26]
12. Cyboman [04:43]
13. Blood [15:39]
14. Hidden Track [00:22]
Код:
Exact Audio Copy V1.0 beta 3 from 29. August 2011
Отчёт EAC об извлечении, выполненном 11. сентября 2014, 20:09
Noise Box / Monkey Ass (US, CLEO95102)
Дисковод: PIONEER BD-RW   BDR-206   Adapter: 0  ID: 0
Режим чтения                 : Достоверность
Использование точного потока : Да
Отключение кэша аудио        : Да
Использование указателей C2  : Нет
Коррекция смещения при чтении                     : 667
Способность читать области Lead-in и Lead-out     : Нет
Заполнение пропущенных сэмплов тишиной            : Да
Удаление блоков с тишиной в начале и конце        : Нет
При вычислениях CRC использовались нулевые сэмплы : Да
Интерфейс                                         : Встроенный Win32-интерфейс для Win NT/2000
Выходной формат          : Пользовательский кодировщик
Выбранный битрейт        : 1024 kBit/s
Качество                 : Высокий
Добавление ID3-тега      : Нет
Утилита сжатия           : C:\Program Files (x86)\Exact Audio Copy\FLAC\FLAC.EXE
Дополнительные параметры : -T "COMMENT=Ripped by SergeyJD"-8 -V -T "ARTIST=%artist%" -T "TITLE=%title%" -T "ALBUM=%albumtitle%" -T "DATE=%year%" -T "TRACKNUMBER=%tracknr%" -T "GENRE=%genre%" -T "COMMENT=%comment%" -T "BAND=%albuminterpret%" -T "ALBUMARTIST=%albuminterpret%" -T "COMPOSER=%composer%" %haslyrics%--tag-from-file=LYRICS="%lyricsfile%"%haslyrics% -T "DISCNUMBER=%cdnumber%" -T "TOTALDISCS=%totalcds%" -T "TOTALTRACKS=%numtracks%" %hascover%--picture="%coverfile%"%hascover% %source% -o %dest%
TOC извлечённого CD
     Трек |   Старт  | Длительность | Начальный сектор | Конечный сектор
    ---------------------------------------------------------------------
       1  |  0:00.50 |    7:13.35   |          50      |      32559
       2  |  7:14.10 |    3:44.35   |       32560      |      49394
       3  | 10:58.45 |    2:49.12   |       49395      |      62081
       4  | 13:47.57 |    3:36.18   |       62082      |      78299
       5  | 17:24.00 |    4:07.05   |       78300      |      96829
       6  | 21:31.05 |    3:33.22   |       96830      |     112826
       7  | 25:04.27 |    4:05.05   |      112827      |     131206
       8  | 29:09.32 |    3:02.73   |      131207      |     144929
       9  | 32:12.30 |    2:13.00   |      144930      |     154904
      10  | 34:25.30 |    7:40.37   |      154905      |     189441
      11  | 42:05.67 |    2:26.58   |      189442      |     200449
      12  | 44:32.50 |    4:43.12   |      200450      |     221686
      13  | 49:15.62 |   15:39.20   |      221687      |     292131
      14  | 64:55.07 |    0:22.63   |      292132      |     293844
Характеристики диапазона извлечения и сообщения об ошибках
Выбранный диапазон
     Имя файла D:\РАЗДАЧИ!!!!\NoiseBox - Monkey Ass (US, CLEO95102) - 1995\Noise Box - Monkey Ass (US, CLEO95102).wav
     Пиковый уровень 100.0 %
     Скорость извлечения 8.0 X
     Качество диапазона 99.9 %
     CRC теста 14101349
     CRC копии 14101349
     Копирование... OK
Ошибок не произошло
AccurateRip: сводка
Трек  1  : извлечено точно (доверие 3)  [D76148CA]  (AR v1)
Трек  2  : извлечено точно (доверие 3)  [3AFDFEE6]  (AR v1)
Трек  3  : извлечено точно (доверие 3)  [C27F62E6]  (AR v1)
Трек  4  : извлечено точно (доверие 3)  [A55F652C]  (AR v1)
Трек  5  : извлечено точно (доверие 3)  [09F0EAC6]  (AR v1)
Трек  6  : извлечено точно (доверие 3)  [7989B5BA]  (AR v1)
Трек  7  : извлечено точно (доверие 3)  [C0AE6020]  (AR v1)
Трек  8  : извлечено точно (доверие 3)  [00E0D49D]  (AR v1)
Трек  9  : извлечено точно (доверие 3)  [A9AC2079]  (AR v1)
Трек 10  : извлечено точно (доверие 3)  [E14C268E]  (AR v1)
Трек 11  : извлечено точно (доверие 3)  [705709CA]  (AR v1)
Трек 12  : извлечено точно (доверие 3)  [26B70235]  (AR v1)
Трек 13  : извлечено точно (доверие 3)  [C00638A1]  (AR v1)
Трек 14  : извлечено точно (доверие 3)  [09DB9C28]  (AR v1)
Все треки извлечены точно
Конец отчёта
---- CUETools DB Plugin V2.1.4
[CTDB TOCID: Tj8T9ENaB7Iyh.HWInzz6MwaZgQ-] disk not present in database
Submit result: Tj8T9ENaB7Iyh.HWInzz6MwaZgQ- has been uploaded
==== Контрольная сумма отчёта 46AB1F0A226B6A8A93E22929C5B14E98F0994711155B9A0927955B68B9B3EFFB ====
   
Код:
REM GENRE "EBM, Industrial"
REM DATE 1995
REM DISCID D70F4D0E
REM COMMENT "ExactAudioCopy v1.0b3"
PERFORMER "Noise Box"
TITLE "Monkey Ass (US, CLEO95102) "
FILE "Noise Box - Monkey Ass (US, CLEO95102).flac" WAVE
  TRACK 01 AUDIO
    TITLE "Deception"
    PERFORMER "Noise Box"
    INDEX 00 00:00:00
    INDEX 01 00:00:50
  TRACK 02 AUDIO
    TITLE "Desire"
    PERFORMER "Noise Box"
    INDEX 00 07:12:35
    INDEX 01 07:14:10
  TRACK 03 AUDIO
    TITLE "Killing Spree"
    PERFORMER "Noise Box"
    INDEX 00 10:56:70
    INDEX 01 10:58:45
  TRACK 04 AUDIO
    TITLE "Skinner"
    PERFORMER "Noise Box"
    INDEX 00 13:46:07
    INDEX 01 13:47:57
  TRACK 05 AUDIO
    TITLE "Tempted"
    PERFORMER "Noise Box"
    INDEX 00 17:22:25
    INDEX 01 17:24:00
  TRACK 06 AUDIO
    TITLE "Suffer"
    PERFORMER "Noise Box"
    INDEX 00 21:29:30
    INDEX 01 21:31:05
  TRACK 07 AUDIO
    TITLE "I Hate U"
    PERFORMER "Noise Box"
    INDEX 00 25:02:52
    INDEX 01 25:04:27
  TRACK 08 AUDIO
    TITLE "Misery"
    PERFORMER "Noise Box"
    INDEX 00 29:07:70
    INDEX 01 29:09:32
  TRACK 09 AUDIO
    TITLE "Some of U"
    PERFORMER "Noise Box"
    INDEX 00 32:10:67
    INDEX 01 32:12:30
  TRACK 10 AUDIO
    TITLE "Hopeless Desire"
    PERFORMER "Noise Box"
    INDEX 00 34:23:67
    INDEX 01 34:25:30
  TRACK 11 AUDIO
    TITLE "Monkey Ass"
    PERFORMER "Noise Box"
    INDEX 00 42:04:26
    INDEX 01 42:05:67
  TRACK 12 AUDIO
    TITLE "Cyboman"
    PERFORMER "Noise Box"
    INDEX 00 44:31:12
    INDEX 01 44:32:50
  TRACK 13 AUDIO
    TITLE "Blood"
    PERFORMER "Noise Box"
    INDEX 01 49:15:62
  TRACK 14 AUDIO
    TITLE "Untitled"
    PERFORMER "Noise Box"
    INDEX 00 64:53:45
    INDEX 01 64:55:07
     
Код:
-----------------------
DON'T MODIFY THIS FILE
-----------------------
PERFORMER: auCDtect Task Manager, ver. 1.5.1RC6 build 1.5.1.7
Copyright (c) 2008-2010 y-soft. All rights reserved
[url=http://y-soft.org]http://y-soft.org[/url]
ANALYZER: auCDtect: CD records authenticity detector, version 0.8.2
Copyright (c) 2004 Oleg Berngardt. All rights reserved.
Copyright (c) 2004 Alexander Djourik. All rights reserved.
FILE: Noise Box - Monkey Ass (US, CLEO95102).flac
  Size: 423745475 Hash: 0B192FDECFFF70B4840A215571692232 Accuracy: -m0
  Conclusion: CDDA 100%
  Signature: 37A097F9659150DDC679AE07F1949630B18CA0C3
     
foobar2000 1.2.3 / Замер динамического диапазона (DR) 1.1.1
Дата отчёта: 2014-09-11 20:40:50
--------------------------------------------------------------------------------
Анализ: Noise Box / Monkey Ass (US, CLEO95102)
--------------------------------------------------------------------------------
DR Пики RMS Продолжительность трека
--------------------------------------------------------------------------------
DR15 0.00 дБ -18.43 дБ 7:13 01-Deception
DR11 0.00 дБ -13.58 дБ 3:44 02-Desire
DR13 0.00 дБ -15.02 дБ 2:49 03-Killing Spree
DR12 0.00 дБ -12.96 дБ 3:36 04-Skinner
DR12 0.00 дБ -14.63 дБ 4:07 05-Tempted
DR13 0.00 дБ -15.83 дБ 3:33 06-Suffer
DR11 0.00 дБ -12.84 дБ 4:05 07-I Hate U
DR11 0.00 дБ -14.15 дБ 3:03 08-Misery
DR13 0.00 дБ -14.46 дБ 2:13 09-Some of U
DR11 0.00 дБ -13.07 дБ 7:40 10-Hopeless Desire
DR11 0.00 дБ -12.21 дБ 2:27 11-Monkey Ass
DR12 0.00 дБ -14.18 дБ 4:43 12-Cyboman
DR12 0.00 дБ -16.33 дБ 15:39 13-Blood
DR9 -1.32 дБ -14.66 дБ 0:23 14-Untitled
--------------------------------------------------------------------------------
Количество треков: 14
Реальные значения DR: DR12
Частота: 44100 Гц
Каналов: 2
Разрядность: 16
Битрейт: 865 кбит/с
Кодек: FLAC
================================================================================
#777
Жанр: EBM, Industrial, Electronic
Страна-производитель диска: Germany
Год выпуска диска: 1995
Дата выхода оригинального издания: 1995
Тип издания: CD, Album
Издатель (лейбл): Off Beat
Номер по каталогу: SPV 084-22202
Продолжительность: 01:05:19
Источник (релизер): Собственный рип
Наличие сканов в содержимом раздачи: да, PNG 600dpi

Треклист
01. Deception [07:13]
02. Desire [03:44]
03. Killing Spree [02:49]
04. Skinner [03:36]
05. Tempted [04:07]
06. Suffer [03:33]
07. I Hate U [04:05]
08. Misery [03:02]
09. Some Of U [02:13]
10. Hopeless Desire [07:40]
11. Monkey Ass [02:26]
12. Cyboman [04:43]
13. Blood [15:39]
14. Hidden Track [00:24]
Код:
Exact Audio Copy V1.0 beta 3 from 29. August 2011
Отчёт EAC об извлечении, выполненном 8. сентября 2014, 20:58
Noisebox / Monkey Ass (SPV 084-22202)
Дисковод: PIONEER BD-RW   BDR-206   Adapter: 0  ID: 0
Режим чтения                 : Достоверность
Использование точного потока : Да
Отключение кэша аудио        : Да
Использование указателей C2  : Нет
Коррекция смещения при чтении                     : 667
Способность читать области Lead-in и Lead-out     : Нет
Заполнение пропущенных сэмплов тишиной            : Да
Удаление блоков с тишиной в начале и конце        : Нет
При вычислениях CRC использовались нулевые сэмплы : Да
Интерфейс                                         : Встроенный Win32-интерфейс для Win NT/2000
Выходной формат          : Пользовательский кодировщик
Выбранный битрейт        : 1024 kBit/s
Качество                 : Высокий
Добавление ID3-тега      : Нет
Утилита сжатия           : C:\Program Files (x86)\Exact Audio Copy\FLAC\FLAC.EXE
Дополнительные параметры : -T "COMMENT=Ripped by SergeyJD"-8 -V -T "ARTIST=%artist%" -T "TITLE=%title%" -T "ALBUM=%albumtitle%" -T "DATE=%year%" -T "TRACKNUMBER=%tracknr%" -T
"GENRE=%genre%" -T "COMMENT=%comment%" -T "BAND=%albuminterpret%" -T "ALBUMARTIST=%albuminterpret%" -T "COMPOSER=%composer%" %haslyrics%--tag-from-file=LYRICS="%lyricsfile
%"%haslyrics% -T "DISCNUMBER=%cdnumber%" -T "TOTALDISCS=%totalcds%" -T "TOTALTRACKS=%numtracks%" %hascover%--picture="%coverfile%"%hascover% %source% -o %dest%
TOC извлечённого CD
     Трек |   Старт  | Длительность | Начальный сектор | Конечный сектор
    ---------------------------------------------------------------------
       1  |  0:00.50 |    7:13.35   |          50      |      32559
       2  |  7:14.10 |    3:44.35   |       32560      |      49394
       3  | 10:58.45 |    2:49.12   |       49395      |      62081
       4  | 13:47.57 |    3:36.18   |       62082      |      78299
       5  | 17:24.00 |    4:07.05   |       78300      |      96829
       6  | 21:31.05 |    3:33.22   |       96830      |     112826
       7  | 25:04.27 |    4:05.05   |      112827      |     131206
       8  | 29:09.32 |    3:02.73   |      131207      |     144929
       9  | 32:12.30 |    2:13.00   |      144930      |     154904
      10  | 34:25.30 |    7:40.37   |      154905      |     189441
      11  | 42:05.67 |    2:26.58   |      189442      |     200449
      12  | 44:32.50 |    4:43.12   |      200450      |     221686
      13  | 49:15.62 |   15:39.20   |      221687      |     292131
      14  | 64:55.07 |    0:24.63   |      292132      |     293994
Характеристики диапазона извлечения и сообщения об ошибках
Выбранный диапазон
     Имя файла D:\РАЗДАЧИ!!!!\NoiseBox - Monkey Ass (SPV 084-22202) - 1995\Noisebox - Monkey Ass (SPV 084-22202).wav
     Пиковый уровень 100.0 %
     Скорость извлечения 8.2 X
     Качество диапазона 99.9 %
     CRC теста B2E3EE8D
     CRC копии B2E3EE8D
     Копирование... OK
Ошибок не произошло
AccurateRip: сводка
Трек  1  : извлечено точно (доверие 1)  [11C17711]  (AR v2)
Трек  2  : извлечено точно (доверие 1)  [09B4E6B5]  (AR v2)
Трек  3  : извлечено точно (доверие 1)  [3FC140AF]  (AR v2)
Трек  4  : извлечено точно (доверие 1)  [E4820604]  (AR v2)
Трек  5  : извлечено точно (доверие 1)  [05D056B7]  (AR v2)
Трек  6  : извлечено точно (доверие 1)  [7684BFA9]  (AR v2)
Трек  7  : извлечено точно (доверие 1)  [3D54F29D]  (AR v2)
Трек  8  : извлечено точно (доверие 1)  [3A6A9B87]  (AR v2)
Трек  9  : извлечено точно (доверие 1)  [E1DE68BD]  (AR v2)
Трек 10  : извлечено точно (доверие 1)  [CB42DD18]  (AR v2)
Трек 11  : извлечено точно (доверие 1)  [C11DB7C0]  (AR v2)
Трек 12  : извлечено точно (доверие 1)  [508E0A02]  (AR v2)
Трек 13  : извлечено точно (доверие 1)  [16ABD427]  (AR v2)
Трек 14  : извлечено точно (доверие 1)  [B6714F37]  (AR v2)
Все треки извлечены точно
Конец отчёта
---- CUETools DB Plugin V2.1.4
[CTDB TOCID: BUD5Rsn1POb2S20n1GEE0qSX1b0-] disk not present in database
Submit result: BUD5Rsn1POb2S20n1GEE0qSX1b0- has been uploaded
==== Контрольная сумма отчёта 9EE009CC1E4C54727A4C4AEB8BA060C361083CC50D2389B432E9795E88405515 ====
   
Код:
REM GENRE "EBM, Industrial"
REM DATE 1995
REM DISCID D70F4F0E
REM COMMENT "ExactAudioCopy v1.0b3"
PERFORMER "Noisebox"
TITLE "Monkey Ass (SPV 084-22202)"
FILE "Noisebox - Monkey Ass (SPV 084-22202).flac" WAVE
  TRACK 01 AUDIO
    TITLE "Deception"
    PERFORMER "Noisebox"
    INDEX 00 00:00:00
    INDEX 01 00:00:50
  TRACK 02 AUDIO
    TITLE "Desire"
    PERFORMER "Noisebox"
    INDEX 00 07:12:35
    INDEX 01 07:14:10
  TRACK 03 AUDIO
    TITLE "Killing Spree"
    PERFORMER "Noisebox"
    INDEX 00 10:56:70
    INDEX 01 10:58:45
  TRACK 04 AUDIO
    TITLE "Skinner"
    PERFORMER "Noisebox"
    INDEX 00 13:46:07
    INDEX 01 13:47:57
  TRACK 05 AUDIO
    TITLE "Tempted"
    PERFORMER "Noisebox"
    INDEX 00 17:22:25
    INDEX 01 17:24:00
  TRACK 06 AUDIO
    TITLE "Suffer"
    PERFORMER "Noisebox"
    INDEX 00 21:29:30
    INDEX 01 21:31:05
  TRACK 07 AUDIO
    TITLE "I Hate U"
    PERFORMER "Noisebox"
    INDEX 00 25:02:52
    INDEX 01 25:04:27
  TRACK 08 AUDIO
    TITLE "Misery"
    PERFORMER "Noisebox"
    INDEX 00 29:07:70
    INDEX 01 29:09:32
  TRACK 09 AUDIO
    TITLE "Some Of U"
    PERFORMER "Noisebox"
    INDEX 00 32:10:67
    INDEX 01 32:12:30
  TRACK 10 AUDIO
    TITLE "Hopeless Desire"
    PERFORMER "Noisebox"
    INDEX 00 34:23:67
    INDEX 01 34:25:30
  TRACK 11 AUDIO
    TITLE "Monkey Ass"
    PERFORMER "Noisebox"
    INDEX 00 42:04:27
    INDEX 01 42:05:67
  TRACK 12 AUDIO
    TITLE "Cyboman"
    PERFORMER "Noisebox"
    INDEX 00 44:31:12
    INDEX 01 44:32:50
  TRACK 13 AUDIO
    TITLE "Blood"
    PERFORMER "Noisebox"
    INDEX 01 49:15:62
  TRACK 14 AUDIO
    TITLE "Untitled"
    PERFORMER "Noisebox"
    INDEX 00 64:53:45
    INDEX 01 64:55:07
     
Код:
-----------------------
DON'T MODIFY THIS FILE
-----------------------
PERFORMER: auCDtect Task Manager, ver. 1.5.1RC6 build 1.5.1.7
Copyright (c) 2008-2010 y-soft. All rights reserved
[url=http://y-soft.org]http://y-soft.org[/url]
ANALYZER: auCDtect: CD records authenticity detector, version 0.8.2
Copyright (c) 2004 Oleg Berngardt. All rights reserved.
Copyright (c) 2004 Alexander Djourik. All rights reserved.
FILE: Noisebox - Monkey Ass (SPV 084-22202).flac
  Size: 423740267 Hash: 48C0CBFFD308336945563CECB10BC995 Accuracy: -m0
  Conclusion: CDDA 100%
  Signature: 42F552E750A1D1373A99DC84801DE5FA71E8EAFE
     
foobar2000 1.2.3 / Замер динамического диапазона (DR) 1.1.1
Дата отчёта: 2014-09-08 21:00:12
--------------------------------------------------------------------------------
Анализ: Noisebox / Monkey Ass (SPV 084-22202)
--------------------------------------------------------------------------------
DR Пики RMS Продолжительность трека
--------------------------------------------------------------------------------
DR15 0.00 дБ -18.43 дБ 7:13 01-Deception
DR11 0.00 дБ -13.58 дБ 3:44 02-Desire
DR13 0.00 дБ -15.02 дБ 2:49 03-Killing Spree
DR12 0.00 дБ -12.96 дБ 3:36 04-Skinner
DR12 0.00 дБ -14.63 дБ 4:07 05-Tempted
DR13 0.00 дБ -15.83 дБ 3:33 06-Suffer
DR11 0.00 дБ -12.84 дБ 4:05 07-I Hate U
DR11 0.00 дБ -14.15 дБ 3:03 08-Misery
DR13 0.00 дБ -14.46 дБ 2:13 09-Some Of U
DR11 0.00 дБ -13.07 дБ 7:40 10-Hopeless Desire
DR11 0.00 дБ -12.21 дБ 2:27 11-Monkey Ass
DR12 0.00 дБ -14.19 дБ 4:43 12-Cyboman
DR12 0.00 дБ -16.33 дБ 15:39 13-Blood
DR9 -1.32 дБ -15.18 дБ 0:25 14-Untitled
--------------------------------------------------------------------------------
Количество треков: 14
Реальные значения DR: DR12
Частота: 44100 Гц
Каналов: 2
Разрядность: 16
Битрейт: 865 кбит/с
Кодек: FLAC
================================================================================
Этот альбом содержит очень эклектический подход почти к любому существующему музыкальному стилю. Rap, hip-hop, EBM, metal, industrial, jazz, funk, noise в различных количествах смешаны вместе в случайном порядке, и аккуратно впрессованы в замысловатые треки, которые, похоже, не поддаются никаким сравнениям или классификациям. Очень интересный альбом, в котором нет двух похожих треков. Единственный альбом, который мне это отдаленно напомнило - это NIN "The Downward Spiral", и только в том контексте, что Trent менял стиль от трека к треку, и в случае Trent'а эта концепция умерла жестокой смертью, в то время как в случае Noisebox она прекрасно сработала.
Источник: http://www.industrialreviews.ru
#777
Жанр: Industrial, Electronic, Hip Hop
Страна-производитель диска: USA
Год выпуска диска: 1995
Дата выхода оригинального издания: 1995
Тип издания: CD, EP
Издатель (лейбл): Cleopatra
Номер по каталогу: CLP 9608-2
Продолжительность: 00:32:16
Источник (релизер): Собственный рип
Наличие сканов в содержимом раздачи: да, PNG 600dpi

Треклист
01. I Hate You (clubbed mix) [04:38]
02. Monkey Ass (live mix) [03:40]
03. Skinner (13' mix) [05:17]
04. Some of U (first take) [04:55]
05. Suffer (first take) [06:28]
06. Skinner (demo mix) [03:31]
07. Desire (demo mix) [03:46]
Код:
Exact Audio Copy V1.0 beta 3 from 29. August 2011
Отчёт EAC об извлечении, выполненном 7. сентября 2014, 1:31
Noise Box / Nuffnutz (EP, CLP 9608-2)
Дисковод: PIONEER BD-RW   BDR-206   Adapter: 0  ID: 0
Режим чтения                 : Достоверность
Использование точного потока : Да
Отключение кэша аудио        : Да
Использование указателей C2  : Нет
Коррекция смещения при чтении                     : 667
Способность читать области Lead-in и Lead-out     : Нет
Заполнение пропущенных сэмплов тишиной            : Да
Удаление блоков с тишиной в начале и конце        : Нет
При вычислениях CRC использовались нулевые сэмплы : Да
Интерфейс                                         : Встроенный Win32-интерфейс для Win NT/2000
Выходной формат          : Пользовательский кодировщик
Выбранный битрейт        : 1024 kBit/s
Качество                 : Высокий
Добавление ID3-тега      : Нет
Утилита сжатия           : C:\Program Files (x86)\Exact Audio Copy\FLAC\FLAC.EXE
Дополнительные параметры : -T "COMMENT=Ripped by SergeyJD"-8 -V -T "ARTIST=%artist%" -T "TITLE=%title%" -T "ALBUM=%albumtitle%" -T "DATE=%year%" -T "TRACKNUMBER=%tracknr%" -T
"GENRE=%genre%" -T "COMMENT=%comment%" -T "BAND=%albuminterpret%" -T "ALBUMARTIST=%albuminterpret%" -T "COMPOSER=%composer%" %haslyrics%--tag-from-file=LYRICS="%lyricsfile
%"%haslyrics% -T "DISCNUMBER=%cdnumber%" -T "TOTALDISCS=%totalcds%" -T "TOTALTRACKS=%numtracks%" %hascover%--picture="%coverfile%"%hascover% %source% -o %dest%
TOC извлечённого CD
     Трек |   Старт  | Длительность | Начальный сектор | Конечный сектор
    ---------------------------------------------------------------------
       1  |  0:00.50 |    4:38.05   |          50      |      20904
       2  |  4:38.55 |    3:40.22   |       20905      |      37426
       3  |  8:19.02 |    5:17.05   |       37427      |      61206
       4  | 13:36.07 |    4:55.50   |       61207      |      83381
       5  | 18:31.57 |    6:28.33   |       83382      |     112514
       6  | 25:00.15 |    3:31.02   |      112515      |     128341
       7  | 28:31.17 |    3:46.18   |      128342      |     145309
Характеристики диапазона извлечения и сообщения об ошибках
Выбранный диапазон
     Имя файла D:\РАЗДАЧИ!!!!\Noise Box - Nuffnutz (EP, CLP 9608-2) - 1995\Noise Box - Nuffnutz (EP, CLP 9608-2).wav
     Пиковый уровень 100.0 %
     Скорость извлечения 6.4 X
     Качество диапазона 100.0 %
     CRC теста 7CEAB22B
     CRC копии 7CEAB22B
     Копирование... OK
Ошибок не произошло
AccurateRip: сводка
Трек  1  : извлечено точно (доверие 5)  [A9E529E5]  (AR v1)
Трек  2  : извлечено точно (доверие 5)  [AB411CDD]  (AR v1)
Трек  3  : извлечено точно (доверие 5)  [B2D73113]  (AR v1)
Трек  4  : извлечено точно (доверие 5)  [D9DEE678]  (AR v1)
Трек  5  : извлечено точно (доверие 5)  [07A0798D]  (AR v1)
Трек  6  : извлечено точно (доверие 5)  [F1B3D156]  (AR v1)
Трек  7  : извлечено точно (доверие 5)  [8240CD51]  (AR v1)
Все треки извлечены точно
Конец отчёта
---- CUETools DB Plugin V2.1.4
[CTDB TOCID: d7k50N.wrXJvvdCMuefT5g5rizc-] disk not present in database
Submit result: d7k50N.wrXJvvdCMuefT5g5rizc- has been uploaded
==== Контрольная сумма отчёта 3DCA6A111FC789AC96A05CB1F862B35EE06BB8C25BF1BA943D8C8F1BA01376F0 ====
   
Код:
 REM GENRE "Industrial, Electronic, Hip Hop"
REM DATE 1995
REM DISCID 3D079107
REM COMMENT "ExactAudioCopy v1.0b3"
PERFORMER "Noise Box"
TITLE "Nuffnutz (EP, CLP 9608-2)"
FILE "Noise Box - Nuffnutz (EP, CLP 9608-2).flac" WAVE
  TRACK 01 AUDIO
    TITLE "I Hate You (clubbed mix)"
    PERFORMER "Noise Box"
    INDEX 00 00:00:00
    INDEX 01 00:00:50
  TRACK 02 AUDIO
    TITLE "Monkey Ass (live mix)"
    PERFORMER "Noise Box"
    INDEX 00 04:37:10
    INDEX 01 04:38:55
  TRACK 03 AUDIO
    TITLE "Skinner (13' mix)"
    PERFORMER "Noise Box"
    INDEX 00 08:17:32
    INDEX 01 08:19:02
  TRACK 04 AUDIO
    TITLE "Some of U (first take)"
    PERFORMER "Noise Box"
    INDEX 00 13:34:37
    INDEX 01 13:36:07
  TRACK 05 AUDIO
    TITLE "Suffer (first take)"
    PERFORMER "Noise Box"
    INDEX 00 18:30:12
    INDEX 01 18:31:57
  TRACK 06 AUDIO
    TITLE "Skinner (demo mix)"
    PERFORMER "Noise Box"
    INDEX 00 24:58:45
    INDEX 01 25:00:15
  TRACK 07 AUDIO
    TITLE "Desire (demo mix)"
    PERFORMER "Noise Box"
    INDEX 00 28:29:47
    INDEX 01 28:31:17
   
Код:
-----------------------
DON'T MODIFY THIS FILE
-----------------------
PERFORMER: auCDtect Task Manager, ver. 1.5.1RC6 build 1.5.1.7
Copyright (c) 2008-2010 y-soft. All rights reserved
[url=http://y-soft.org]http://y-soft.org[/url]
ANALYZER: auCDtect: CD records authenticity detector, version 0.8.2
Copyright (c) 2004 Oleg Berngardt. All rights reserved.
Copyright (c) 2004 Alexander Djourik. All rights reserved.
FILE: Noise Box - Nuffnutz (EP, CLP 9608-2).flac
  Size: 223022494 Hash: 14CE5899E4261754F1A2A26C18B2DEDE Accuracy: -m0
  Conclusion: CDDA 100%
  Signature: D313CDDEA43E01513BFE7C91C35060D18E25F64B
     
foobar2000 1.2.3 / Замер динамического диапазона (DR) 1.1.1
Дата отчёта: 2014-09-08 18:30:33
--------------------------------------------------------------------------------
Анализ: Noise Box / Nuffnutz (EP, CLP 9608-2)
--------------------------------------------------------------------------------
DR Пики RMS Продолжительность трека
--------------------------------------------------------------------------------
DR11 0.00 дБ -13.88 дБ 4:38 01-I Hate You (clubbed mix)
DR11 0.00 дБ -12.90 дБ 3:40 02-Monkey Ass (live mix)
DR12 -0.01 дБ -14.09 дБ 5:17 03-Skinner (13' mix)
DR12 -0.58 дБ -15.84 дБ 4:56 04-Some of U (first take)
DR15 -0.46 дБ -16.93 дБ 6:28 05-Suffer (first take)
DR12 -0.88 дБ -16.18 дБ 3:31 06-Skinner (demo mix)
DR13 -0.41 дБ -14.89 дБ 3:46 07-Desire (demo mix)
--------------------------------------------------------------------------------
Количество треков: 7
Реальные значения DR: DR12
Частота: 44100 Гц
Каналов: 2
Разрядность: 16
Битрейт: 921 кбит/с
Кодек: FLAC
================================================================================
При рецензировании дебютного альбома Noise Box 'Monkey Ass' я был несколько в затруднении пытаясь определить огромное число музыкальных стилей, которые присутствуют в этом альбоме. Теперь, после того как я лично повстречал эти взбудораженные умы, вторящие эту музыку, я чувствую, что могу лучше установить концепции, которые Josh и Dre пытаются передать своим слушателям. Josh и Dre просто делают музыку для самих себя, и то что Cleopatra Records действительно хотят платить им за то, чтобы выпускать эту музыку для публики, мало влияет на конечный продукт, который они создают. Они воруют неуместные сэмплы из Moby, Front Line Assembly, или разных игр Sega, чтобы закончить трек, в который мало что можно уже добавить. Они создают музыку чисто лишь от удовольствия ее создавать, и иметь возможность вживую играть эту музыку для аудитории. Если публике нравится конечный результат музыкальных исканий Noise Box, то они довольны, если же нет - кого это волнует. Такой настрой просто вызывающе очевиден из названий их альбома и maxi-CD, а также из названий многих песен. Им нравится надсмехаться над лэйблом, который выпускает их музыку под такими названиями как 'Monkey Ass' и 'Nuffnutz'. Их бесконечно веселит выдавать музыку с совершенно ничего не значащими названиями и смеяться над слушателями, которые думают, что эти названия имеют какой-то глубокий серьезный подтекст. В целом, Noise Box - это веселая музыка с собственными различными вокальными и акустическими стилями, которые пересекают столько музыкальных границ, что любая попытка определить их обречена на провал.
Источник: http://www.industrialreviews.ru
#777

Жанр: Industrial, Electronic, Noise
Страна-производитель диска: USA
Год выпуска диска: 1997
Дата выхода оригинального издания: 1997
Тип издания: CD, Album
Издатель (лейбл): Cleopatra
Номер по каталогу: CLP 9927-2
Продолжительность: 00:50:27
Источник (релизер): Собственный рип
Наличие сканов в содержимом раздачи: да, PNG 600dpi

Треклист
01. Letter Die [04:30]
02. Fill the Bottle [04:05]
03. Fade 2 Silence [03:55]
04. The Night the Aliens Came [04:56]
05. Welcome to the Industrial Revolution [03:11]
06. Rocanthabeat [03:01]
07. Snivel [03:38]
08. Torment [02:45]
09. Zombies [02:48]
10. Phobia [02:30]
11. Miasma [03:33]
12. Water [06:35]
13. Yellow Green and Lime [04:55]
Код:
Exact Audio Copy V1.0 beta 3 from 29. August 2011
Отчёт EAC об извлечении, выполненном 7. сентября 2014, 2:48
Noise Box / The Bigginning (CLP 9927-2)
Дисковод: PIONEER BD-RW   BDR-206   Adapter: 0  ID: 0
Режим чтения                 : Достоверность
Использование точного потока : Да
Отключение кэша аудио        : Да
Использование указателей C2  : Нет
Коррекция смещения при чтении                     : 667
Способность читать области Lead-in и Lead-out     : Нет
Заполнение пропущенных сэмплов тишиной            : Да
Удаление блоков с тишиной в начале и конце        : Нет
При вычислениях CRC использовались нулевые сэмплы : Да
Интерфейс                                         : Встроенный Win32-интерфейс для Win NT/2000
Выходной формат          : Пользовательский кодировщик
Выбранный битрейт        : 1024 kBit/s
Качество                 : Высокий
Добавление ID3-тега      : Нет
Утилита сжатия           : C:\Program Files (x86)\Exact Audio Copy\FLAC\FLAC.EXE
Дополнительные параметры : -T "COMMENT=Ripped by SergeyJD"-8 -V -T "ARTIST=%artist%" -T "TITLE=%title%" -T "ALBUM=%albumtitle%" -T "DATE=%year%" -T "TRACKNUMBER=%tracknr%" -T
"GENRE=%genre%" -T "COMMENT=%comment%" -T "BAND=%albuminterpret%" -T "ALBUMARTIST=%albuminterpret%" -T "COMPOSER=%composer%" %haslyrics%--tag-from-file=LYRICS="%lyricsfile
%"%haslyrics% -T "DISCNUMBER=%cdnumber%" -T "TOTALDISCS=%totalcds%" -T "TOTALTRACKS=%numtracks%" %hascover%--picture="%coverfile%"%hascover% %source% -o %dest%
TOC извлечённого CD
     Трек |   Старт  | Длительность | Начальный сектор | Конечный сектор
    ---------------------------------------------------------------------
       1  |  0:00.50 |    4:30.12   |          50      |      20311
       2  |  4:30.62 |    4:05.28   |       20312      |      38714
       3  |  8:36.15 |    3:55.62   |       38715      |      56401
       4  | 12:32.02 |    4:56.00   |       56402      |      78601
       5  | 17:28.02 |    3:11.68   |       78602      |      92994
       6  | 20:39.70 |    3:01.72   |       92995      |     106641
       7  | 23:41.67 |    3:38.00   |      106642      |     122991
       8  | 27:19.67 |    2:45.38   |      122992      |     135404
       9  | 30:05.30 |    2:48.10   |      135405      |     148014
      10  | 32:53.40 |    2:30.17   |      148015      |     159281
      11  | 35:23.57 |    3:33.48   |      159282      |     175304
      12  | 38:57.30 |    6:35.17   |      175305      |     204946
      13  | 45:32.47 |    4:55.20   |      204947      |     227091
Характеристики диапазона извлечения и сообщения об ошибках
Выбранный диапазон
     Имя файла D:\РАЗДАЧИ!!!!\Noise Box - The Bigginning (CLP 9927-2) - 1997\Noise Box - The Bigginning (CLP 9927-2).wav
     Пиковый уровень 100.0 %
     Скорость извлечения 1.7 X
     Качество диапазона 100.0 %
     CRC теста E366EE24
     CRC копии E366EE24
     Копирование... OK
Ошибок не произошло
AccurateRip: сводка
Трек  1  : извлечено точно (доверие 4)  [E601A4BB]  (AR v1)
Трек  2  : извлечено точно (доверие 4)  [7101154D]  (AR v1)
Трек  3  : извлечено точно (доверие 4)  [DAB0183D]  (AR v1)
Трек  4  : извлечено точно (доверие 4)  [85097540]  (AR v1)
Трек  5  : извлечено точно (доверие 4)  [074A1879]  (AR v1)
Трек  6  : извлечено точно (доверие 4)  [335D5069]  (AR v1)
Трек  7  : извлечено точно (доверие 4)  [CC382875]  (AR v1)
Трек  8  : извлечено точно (доверие 4)  [44EB2FD4]  (AR v1)
Трек  9  : извлечено точно (доверие 4)  [9EDA0B3E]  (AR v1)
Трек 10  : извлечено точно (доверие 4)  [0B3C0AE9]  (AR v1)
Трек 11  : извлечено точно (доверие 4)  [18BA0701]  (AR v1)
Трек 12  : извлечено точно (доверие 4)  [C1952B69]  (AR v1)
Трек 13  : извлечено точно (доверие 4)  [70438DFC]  (AR v1)
Все треки извлечены точно
Конец отчёта
---- CUETools DB Plugin V2.1.4
[CTDB TOCID: cOaF83lwyRMB5NnHNfWkmEOj3JY-] disk not present in database
Submit result: cOaF83lwyRMB5NnHNfWkmEOj3JY- has been uploaded
==== Контрольная сумма отчёта 43E30678EC59A5D46E3E568BE68917027C4DC9EF4D565DD12812626A1186B05A ====
   
Код:
 REM GENRE "Industrial, Electronic"
REM DATE 1997
REM DISCID A00BD30D
REM COMMENT "ExactAudioCopy v1.0b3"
PERFORMER "Noise Box"
TITLE "The Bigginning (CLP 9927-2)"
FILE "Noise Box - The Bigginning (CLP 9927-2).flac" WAVE
  TRACK 01 AUDIO
    TITLE "Letter Die"
    PERFORMER "Noise Box"
    INDEX 00 00:00:00
    INDEX 01 00:00:50
  TRACK 02 AUDIO
    TITLE "Fill the Bottle"
    PERFORMER "Noise Box"
    INDEX 00 04:29:22
    INDEX 01 04:30:62
  TRACK 03 AUDIO
    TITLE "Fade 2 Silence"
    PERFORMER "Noise Box"
    INDEX 00 08:34:50
    INDEX 01 08:36:15
  TRACK 04 AUDIO
    TITLE "The Night the Aliens Came"
    PERFORMER "Noise Box"
    INDEX 00 12:30:37
    INDEX 01 12:32:02
  TRACK 05 AUDIO
    TITLE "Welcome to the Industrial Revolution"
    PERFORMER "Noise Box"
    INDEX 00 17:26:40
    INDEX 01 17:28:02
  TRACK 06 AUDIO
    TITLE "Rocanthabeat"
    PERFORMER "Noise Box"
    INDEX 00 20:38:32
    INDEX 01 20:39:70
  TRACK 07 AUDIO
    TITLE "Snivel"
    PERFORMER "Noise Box"
    INDEX 00 23:40:27
    INDEX 01 23:41:67
  TRACK 08 AUDIO
    TITLE "Torment"
    PERFORMER "Noise Box"
    INDEX 01 27:19:67
  TRACK 09 AUDIO
    TITLE "Zombies"
    PERFORMER "Noise Box"
    INDEX 00 30:03:67
    INDEX 01 30:05:30
  TRACK 10 AUDIO
    TITLE "Phobia"
    PERFORMER "Noise Box"
    INDEX 00 32:52:02
    INDEX 01 32:53:40
  TRACK 11 AUDIO
    TITLE "Miasma"
    PERFORMER "Noise Box"
    INDEX 00 35:22:20
    INDEX 01 35:23:57
  TRACK 12 AUDIO
    TITLE "Water"
    PERFORMER "Noise Box"
    INDEX 00 38:55:67
    INDEX 01 38:57:30
  TRACK 13 AUDIO
    TITLE "Yellow Green and Lime"
    PERFORMER "Noise Box"
    INDEX 00 45:31:12
    INDEX 01 45:32:47
   
Код:
-----------------------
DON'T MODIFY THIS FILE
-----------------------
PERFORMER: auCDtect Task Manager, ver. 1.5.1RC6 build 1.5.1.7
Copyright (c) 2008-2010 y-soft. All rights reserved
[url=http://y-soft.org]http://y-soft.org[/url]
ANALYZER: auCDtect: CD records authenticity detector, version 0.8.2
Copyright (c) 2004 Oleg Berngardt. All rights reserved.
Copyright (c) 2004 Alexander Djourik. All rights reserved.
FILE: Noise Box - The Bigginning (CLP 9927-2).flac
  Size: 312300457 Hash: 8F628E79E2A88B8516700BD92F51D008 Accuracy: -m0
  Conclusion: CDDA 100%
  Signature: DE6E56C7C6201D62A965D30C88A37218E0830185
     
foobar2000 1.2.3 / Замер динамического диапазона (DR) 1.1.1
Дата отчёта: 2014-09-08 18:53:39
--------------------------------------------------------------------------------
Анализ: Noise Box / The Bigginning (CLP 9927-2)
--------------------------------------------------------------------------------
DR Пики RMS Продолжительность трека
--------------------------------------------------------------------------------
DR15 0.00 дБ -15.59 дБ 4:30 01-Letter Die
DR13 -0.34 дБ -15.88 дБ 4:05 02-Fill the Bottle
DR14 -0.02 дБ -16.27 дБ 3:56 03-Fade 2 Silence
DR13 -0.02 дБ -15.94 дБ 4:56 04-The Night the Aliens Came
DR12 -1.35 дБ -16.78 дБ 3:12 05-Welcome to the Industrial Revolution
DR11 -2.00 дБ -15.37 дБ 3:02 06-Rocanthabeat
DR13 -2.00 дБ -16.01 дБ 3:38 07-Snivel
DR12 -2.00 дБ -15.47 дБ 2:46 08-Torment
DR11 -2.00 дБ -13.43 дБ 2:48 09-Zombies
DR12 -2.00 дБ -15.32 дБ 2:30 10-Phobia
DR10 -2.00 дБ -13.72 дБ 3:34 11-Miasma
DR11 -2.00 дБ -14.45 дБ 6:35 12-Water
DR12 -2.00 дБ -15.78 дБ 4:55 13-Yellow Green and Lime
--------------------------------------------------------------------------------
Количество треков: 13
Реальные значения DR: DR12
Частота: 44100 Гц
Каналов: 2
Разрядность: 16
Битрейт: 825 кбит/с
Кодек: FLAC
================================================================================
Noise Box демонстрируют некоторые определенные признаки зрелости во втором полноценном альбоме "The Bigginning". Как Dre, так и Shadow, похоже, немного смягчились и стали писать настоящие песни вместо обычной коллекции скрытых шуток и персональных атак на бывших знакомых. Они не только наконец-то ухватили саму концепцию мелодии, но они также отошли от своеобразного музыкального стиля своего предыдущего альбома. Этот альбом, хотя и минималистичный в плане стиля программинга, имеет заимствования из традиционных electro, punk, ambient, и жанра экспериментальной музыки. В результате, Noise Box теперь понравится гораздо более широкой аудитории. Также нужно отметить, что хотя большая часть глупости и игры слов предыдущего альбома исчезли, в некоторых его местах спрятаны элементы самонасмешки. Вы просто теперь должны внимательней искать проявления юмора.
Источник: http://www.industrialreviews.ru
Noise Box is the techno-industrial Seattle duo of Andre Robinson and Josh Helm. Josh and Andre started recording together as T.N.A.T.R in 1985 with high school buddy Lamar Lofton on bass. Noise Box made commercially available records from 1995 to 1997. The song "I Hate You" was an unexpected success for the band, hitting the top 10 dance charts for months straight after the release of Monkey Ass. Noise Box followed Monkey Ass with a EP of remixes creatively titled 'NUFFNUTZ', rumor was the band wanted to release several punk rock songs but that "request" was denied by Cleopatra Records. What released was a taunting selection of remixes from Monkey Ass. 'The Bigginning' was the groups last official release in 1997. The band went through a set of strange changes over the previous two years and both this album's overtone and sound reflected the outcome.

Правила, инструкции, FAQ!!!
Торрент  Добавлен [26 июн 2020, 20:18] Скачать торрент Магнет ссылка
Скачать торрент
[ Размер 22.81 КБ / Просмотров 13 ]

Статус
Проверен 
 
Размер  1.79 ГБ
Приватный: Нет (DHT включён)
.torrent скачан  0
 


     Отправить личное сообщение
   
Страница 1 из 1
Показать сообщения за:  Поле сортировки  
Начать новую тему Ответить на тему


Сейчас этот форум просматривают: нет зарегистрированных пользователей и гости: 0


Вы не можете начинать темы
Вы не можете отвечать на сообщения
Вы не можете редактировать свои сообщения
Вы не можете удалять свои сообщения
Вы не можете добавлять вложения

Перейти:  
cron