Начать новую тему Ответить на тему
Статистика раздачи
Размер: 248.53 МБ | Добавлен: 26 июн 2020, 20:23 | Скачали: 0
Сидеров: 0  [0 байт/сек]    Личеров: 0  [0 байт/сек]
Пред. тема | След. тема 

Автор
Сообщение

СообщениеДобавлено: 26 июн 2020, 20:23 

Ответить с цитатой 

Zero Defects / Thoughtographic
Жанр: EBM, Industrial, Electro
Страна-производитель диска: Germany
Год издания диска: 1995
Издатель (лейбл): Zoth Ommog
Номер по каталогу: CD ZOT 144
Формат: CD, EP
Аудиокодек: FLAC (*.flac)
Тип рипа: image+.cue
Битрейт аудио: lossless
Продолжительность: 0:35:26.59
Источник (релизер): Физический носитель (Собственный рип с оригинала)
Наличие сканов в содержимом раздачи: да
Треклист:
01. Stagediver [7:13]
02. Fiat Lux [7:18]
03. Monogen [3:15]
04. Invenvictory [4:00]
05. Headageddon [7:52]
06. End Of... (Extra Dry Version) [5:49]
Код:
Exact Audio Copy V1.0 beta 3 from 29. August 2011
EAC extraction logfile from 15. March 2012, 21:56
Zero Defects / Thoughtographic
Used drive  : PLEXTOR BDDVDR PX-B320SA   Adapter: 0  ID: 2
Read mode               : Secure
Utilize accurate stream : Yes
Defeat audio cache      : Yes
Make use of C2 pointers : No
Read offset correction                      : 6
Overread into Lead-In and Lead-Out          : No
Fill up missing offset samples with silence : Yes
Delete leading and trailing silent blocks   : No
Null samples used in CRC calculations       : Yes
Used interface                              : Native Win32 interface for Win NT & 2000
Used output format              : User Defined Encoder
Selected bitrate                : 128 kBit/s
Quality                         : High
Add ID3 tag                     : No
Command line compressor         : C:\Program Files (x86)\FLAC\flac.exe
Additional command line options : -V -8 -T "Date=%year%" -T "Genre=%genre%" %source%
TOC of the extracted CD
     Track |   Start  |  Length  | Start sector | End sector
    ---------------------------------------------------------
        1  |  0:00.00 |  7:12.45 |         0    |    32444
        2  |  7:12.45 |  7:17.74 |     32445    |    65293
        3  | 14:30.44 |  3:15.21 |     65294    |    79939
        4  | 17:45.65 |  4:00.31 |     79940    |    97970
        5  | 21:46.21 |  7:51.47 |     97971    |   133342
        6  | 29:37.68 |  5:48.66 |    133343    |   159508
Range status and errors
Selected range
     Filename D:\Zero Defects - Thoughtographic EP (1995)\Zero Defects - Thoughtographic.wav
     Peak level 100.0 %
     Extraction speed 6.5 X
     Range quality 99.9 %
     Test CRC E6F4108C
     Copy CRC E6F4108C
     Copy OK
No errors occurred
AccurateRip summary
Track  1  not present in database
Track  2  accurately ripped (confidence 2)  [442218D7]  (AR v1)
Track  3  accurately ripped (confidence 2)  [4FE325C0]  (AR v1)
Track  4  accurately ripped (confidence 2)  [63C7FE6A]  (AR v1)
Track  5  accurately ripped (confidence 2)  [F574DEF2]  (AR v1)
Track  6  accurately ripped (confidence 2)  [3C7AE4C6]  (AR v1)
 5 трек(и) скопированы точно
 1 трек(и) не содержатся в базе AccurateRip
Some tracks could not be verified as accurate
End of status report
==== Log checksum B246D0825ED200530D3262BCF813F3B4C62F20A007161C8BE2AC41FE323D8757 ====
Правила, инструкции, FAQ!!!
Торрент  Добавлен [26 июн 2020, 20:23] Скачать торрент Магнет ссылка
Скачать торрент
[ Размер 20.36 КБ / Просмотров 9 ]

Статус
Проверен 
 
Размер  248.53 МБ
Приватный: Нет (DHT включён)
.torrent скачан  0
 


     Отправить личное сообщение
   
Страница 1 из 1
Показать сообщения за:  Поле сортировки  
Начать новую тему Ответить на тему


Сейчас этот форум просматривают: нет зарегистрированных пользователей и гости: 0


Вы не можете начинать темы
Вы не можете отвечать на сообщения
Вы не можете редактировать свои сообщения
Вы не можете удалять свои сообщения
Вы не можете добавлять вложения

Перейти:  
cron