Начать новую тему Ответить на тему
Статистика раздачи
Размер: 330.4 МБ | Добавлен: 26 июн 2020, 20:23 | Скачали: 0
Сидеров: 0  [0 байт/сек]    Личеров: 0  [0 байт/сек]
Пред. тема | След. тема 

Автор
Сообщение

СообщениеДобавлено: 26 июн 2020, 20:23 

Ответить с цитатой 

Zero Defects / ,Komma
Жанр: EBM, Industrial, Electro
Страна-производитель диска: Germany
Год издания диска: 1996
Издатель (лейбл): Zoth Ommog
Номер по каталогу: cd zot 168
Формат: CD, Album
Аудиокодек: FLAC (*.flac)
Тип рипа: image+.cue
Битрейт аудио: lossless
Продолжительность: 0:51:09.29
Источник (релизер): Физический носитель (Собственный рип с оригинала)
Наличие сканов в содержимом раздачи: да
Треклист:
01. Schwätzer [5:35]
02. Träum Dich [4:49]
03. Als Ob [4:28]
04. Gier [5:26]
05. Gedanken Sind Frei (Und Das Ist Das Problem) [6:08]
06. Angst [4:37]
07. Niemals [4:32]
08. Leb 2 [5:06]
09. Fremdschaft [5:50]
10. Blumen Pflücken [4:22]
11. Untitled [0:16]
Код:
Exact Audio Copy V1.0 beta 3 from 29. August 2011
EAC extraction logfile from 15. March 2012, 21:36
Zero Defects / ,Komma
Used drive  : PLEXTOR BDDVDR PX-B320SA   Adapter: 0  ID: 2
Read mode               : Secure
Utilize accurate stream : Yes
Defeat audio cache      : Yes
Make use of C2 pointers : No
Read offset correction                      : 6
Overread into Lead-In and Lead-Out          : No
Fill up missing offset samples with silence : Yes
Delete leading and trailing silent blocks   : No
Null samples used in CRC calculations       : Yes
Used interface                              : Native Win32 interface for Win NT & 2000
Used output format              : User Defined Encoder
Selected bitrate                : 128 kBit/s
Quality                         : High
Add ID3 tag                     : No
Command line compressor         : C:\Program Files (x86)\FLAC\flac.exe
Additional command line options : -V -8 -T "Date=%year%" -T "Genre=%genre%" %source%
TOC of the extracted CD
     Track |   Start  |  Length  | Start sector | End sector
    ---------------------------------------------------------
        1  |  0:00.00 |  5:34.69 |         0    |    25118
        2  |  5:34.69 |  4:49.07 |     25119    |    46800
        3  | 10:24.01 |  4:28.09 |     46801    |    66909
        4  | 14:52.10 |  5:26.37 |     66910    |    91396
        5  | 20:18.47 |  6:08.05 |     91397    |   119001
        6  | 26:26.52 |  4:37.19 |    119002    |   139795
        7  | 31:03.71 |  4:31.54 |    139796    |   160174
        8  | 35:35.50 |  5:05.45 |    160175    |   183094
        9  | 40:41.20 |  5:50.12 |    183095    |   209356
       10  | 46:31.32 |  4:21.67 |    209357    |   228998
       11  | 50:53.24 |  0:16.05 |    228999    |   230203
Range status and errors
Selected range
     Filename D:\Zero Defects - ,Komma (1996)\Zero Defects - ,Komma.wav
     Peak level 100.0 %
     Extraction speed 7.2 X
     Range quality 100.0 %
     Test CRC 9672E21E
     Copy CRC 9672E21E
     Copy OK
No errors occurred
AccurateRip summary
Track  1  accurately ripped (confidence 4)  [795EB93F]  (AR v1)
Track  2  accurately ripped (confidence 4)  [01D9413C]  (AR v1)
Track  3  accurately ripped (confidence 4)  [6516D911]  (AR v1)
Track  4  accurately ripped (confidence 4)  [2414FCE2]  (AR v1)
Track  5  accurately ripped (confidence 4)  [C5FEF4DE]  (AR v1)
Track  6  accurately ripped (confidence 4)  [A7ED8F23]  (AR v1)
Track  7  accurately ripped (confidence 4)  [79667BF8]  (AR v1)
Track  8  accurately ripped (confidence 4)  [95037D61]  (AR v1)
Track  9  accurately ripped (confidence 4)  [4F5DC777]  (AR v1)
Track 10  accurately ripped (confidence 4)  [702C3257]  (AR v1)
Track 11  accurately ripped (confidence 4)  [1E0014AF]  (AR v1)
All tracks accurately ripped
End of status report
==== Log checksum C23FF7F230F58F841B2DC66D1E0098D9B091A74A3AE252CFC9C6D05C2611244A ====
Правила, инструкции, FAQ!!!
Торрент  Добавлен [26 июн 2020, 20:23] Скачать торрент Магнет ссылка
Скачать торрент
[ Размер 13.84 КБ / Просмотров 6 ]

Статус
Проверен 
 
Размер  330.4 МБ
Приватный: Нет (DHT включён)
.torrent скачан  0
 


     Отправить личное сообщение
   
Страница 1 из 1
Показать сообщения за:  Поле сортировки  
Начать новую тему Ответить на тему


Сейчас этот форум просматривают: нет зарегистрированных пользователей и гости: 0


Вы не можете начинать темы
Вы не можете отвечать на сообщения
Вы не можете редактировать свои сообщения
Вы не можете удалять свои сообщения
Вы не можете добавлять вложения

Перейти:  
cron