Начать новую тему Ответить на тему
Статистика раздачи
Размер: 878.04 МБ | Добавлен: 26 июн 2020, 17:46 | Скачали: 0
Сидеров: 0  [0 байт/сек]    Личеров: 0  [0 байт/сек]
Пред. тема | След. тема 

Автор
Сообщение

СообщениеДобавлено: 26 июн 2020, 17:46 

Ответить с цитатой 

:wumpscut: - Blutkind
Жанр: EBM, Industrial, Electro
Год выпуска диска: 2000
Производитель диска: Germany
Аудио кодек: FLAC
Тип рипа: image+.cue
Битрейт аудио: lossless
Продолжительность: 137:24
Трэклист:
СD1
1-01 Hang Him Higher (6:06)
1-02 Koslow (First Take) (3:23)
1-03 Anaesthetics (3:46)
1-04 Time Ticks Away (3:15)
1-05 Stomp (2:19)
1-06 Flangegod (4:23)
1-07 Irak1 (First Take) (4:15)
1-08 Irak1 (Second Take) (4:18)
1-09 Logic Of War (2:24)
1-10 Crucified (3:53)
1-11 Neolith (4:18)
1-12 Pornography (4:22)
1-13 The Hellion (4:06)
1-14 Run Like Hell Part 1 (3:25)
1-15 Run Like Hell Part 2 (3:07)
1-16 Soylent Green (Instrumental Take) (6:14)
1-17 Default (Alternative Take) (2:30)

CD2

2-01 Multimedia Track (8:52)
2-02 Praise Your Fears (5:13)
2-03 The Dark Chamber (4:24)
2-04 Frozen Images (5:24)
2-05 Phase Shifter (3:41)
2-06 Throbberstalk (4:20)
2-07 Clinics (1:41)
2-08 K-u-t-t (4:29)
2-09 Equal Eye (4:16)
2-10 Slovakian Hell (4:47)
2-11 March Of The Crying (3:24)
2-12 Irak2 (4:52)
2-13 To The Sky (4:49)
2-14 Eternal (3:07)
2-15 Lamandier (1:39)
2-16 Tschüsch Domos (3:18)
2-17 Zech Groove (3:39)
Доп. информация:
Код:
Exact Audio Copy V0.99 prebeta 4 from 23. January 2008
Отчёт EAC об извлечении, выполненном 14. марта 2009, 23:29
Wumpscut / BloodChild (BlutKind)
Дисковод: MATSHITAUJ-842D   Adapter: 0  ID: 0
Режим чтения                 : Достоверность
Использование точного потока : Да
Отключение кэша аудио        : Да
Использование указателей C2  : Нет
Коррекция смещения при чтении                     : 102
Способность читать области Lead-in и Lead-out     : Нет
Заполнение пропущенных сэмплов тишиной            : Да
Удаление блоков с тишиной в начале и конце        : Нет
При вычислениях CRC использовались нулевые сэмплы : Да
Интерфейс                                         : Встроенный Win32-интерфейс для Win NT/2000
Выходной формат          : Пользовательский кодировщик
Выбранный битрейт        : 768 kBit/s
Качество                 : Высокий
Добавление ID3-тэга      : Нет
Утилита сжатия           : C:\Program Files\Exact Audio Copy\FLAC\FLAC.EXE
Дополнительные параметры : -6 -V -T "ARTIST=%a" -T "TITLE=%t" -T "ALBUM=%g" -T "DATE=%y" -T "TRACKNUMBER=%n" -T "GENRE=%m" -T "COMMENT=%e" %s -o %d
TOC извлечённого CD
     Трек |   Старт  | Длительность | Начальный сектор | Конечный сектор
    ---------------------------------------------------------------------
       1  |  0:00.00 |    6:04.42   |           0      |      27341
       2  |  6:04.42 |    4:30.09   |       27342      |      47600
       3  | 10:34.51 |    3:46.09   |       47601      |      64559
       4  | 14:20.60 |    3:15.41   |       64560      |      79225
       5  | 17:36.26 |    2:19.50   |       79226      |      89700
       6  | 19:56.01 |    4:23.47   |       89701      |     109472
       7  | 24:19.48 |    4:15.10   |      109473      |     128607
       8  | 28:34.58 |    4:18.10   |      128608      |     147967
       9  | 32:52.68 |    2:24.36   |      147968      |     158803
      10  | 35:17.29 |    3:53.05   |      158804      |     176283
      11  | 39:10.34 |    4:18.25   |      176284      |     195658
      12  | 43:28.59 |    4:22.50   |      195659      |     215358
      13  | 47:51.34 |    4:06.28   |      215359      |     233836
      14  | 51:57.62 |    3:25.62   |      233837      |     249273
      15  | 55:23.49 |    3:07.30   |      249274      |     263328
      16  | 58:31.04 |    6:14.46   |      263329      |     291424
      17  | 64:45.50 |    2:32.21   |      291425      |     302845
Характеристики диапазона извлечения и сообщения об ошибках
Выбранный диапазон
     Имя файла C:\Documents and Settings\Administrator\Desktop\P2P\Шара\Music\Wumpscut - BloodChild (BlutKind)\Wumpscut - BloodChild (BlutKind).wav
     Пиковый уровень 100.0 %
     Качество диапазона 100.0 %
     CRC теста 85E79EB8
     CRC копии 85E79EB8
     Копирование... OK
Ошибок не произошло
Конец отчёта
Код:
Exact Audio Copy V0.99 prebeta 4 from 23. January 2008
Отчёт EAC об извлечении, выполненном 15. марта 2009, 0:54
:wumpscut: / BloodChild (BlutKind)
Дисковод: MATSHITAUJ-842D   Adapter: 0  ID: 0
Режим чтения                 : Достоверность
Использование точного потока : Да
Отключение кэша аудио        : Да
Использование указателей C2  : Нет
Коррекция смещения при чтении                     : 102
Способность читать области Lead-in и Lead-out     : Нет
Заполнение пропущенных сэмплов тишиной            : Да
Удаление блоков с тишиной в начале и конце        : Нет
При вычислениях CRC использовались нулевые сэмплы : Да
Интерфейс                                         : Встроенный Win32-интерфейс для Win NT/2000
Выходной формат          : Пользовательский кодировщик
Выбранный битрейт        : 768 kBit/s
Качество                 : Высокий
Добавление ID3-тэга      : Нет
Утилита сжатия           : C:\Program Files\Exact Audio Copy\FLAC\FLAC.EXE
Дополнительные параметры : -6 -V -T "ARTIST=%a" -T "TITLE=%t" -T "ALBUM=%g" -T "DATE=%y" -T "TRACKNUMBER=%n" -T "GENRE=%m" -T "COMMENT=%e" %s -o %d
TOC извлечённого CD
     Трек |   Старт  | Длительность | Начальный сектор | Конечный сектор
    ---------------------------------------------------------------------
       1  |  0:00.00 |    0:12.00   |           0      |        899
       2  |  0:12.00 |    5:12.43   |         900      |      24342
       3  |  5:24.43 |    4:23.67   |       24343      |      44134
       4  |  9:48.35 |    5:23.39   |       44135      |      68398
       5  | 15:11.74 |    3:42.21   |       68399      |      85069
       6  | 18:54.20 |    4:19.12   |       85070      |     104506
       7  | 23:13.32 |    1:40.59   |      104507      |     112065
       8  | 24:54.16 |    4:28.11   |      112066      |     132176
       9  | 29:22.27 |    4:16.46   |      132177      |     151422
      10  | 33:38.73 |    4:46.73   |      151423      |     172945
      11  | 38:25.71 |    3:23.39   |      172946      |     188209
      12  | 41:49.35 |    4:51.18   |      188210      |     210052
      13  | 46:40.53 |    4:49.29   |      210053      |     231756
      14  | 51:30.07 |    3:06.58   |      231757      |     245764
      15  | 54:36.65 |    1:38.36   |      245765      |     253150
      16  | 56:15.26 |    3:17.51   |      253151      |     267976
      17  | 59:33.02 |    3:39.19   |      267977      |     284420
      18  | 65:44.21 |    4:23.00   |      295821      |     315545
Характеристики диапазона извлечения и сообщения об ошибках
Выбранный диапазон
     Имя файла C:\Documents and Settings\Administrator\Desktop\P2P\Шара\Music\Wumpscut - BloodChild (BlutKind)\CD2\wumpscut  - BloodChild (BlutKind).wav
     Пиковый уровень 100.0 %
     Качество диапазона 100.0 %
     CRC теста 1159ADA6
     CRC копии 1159ADA6
     Копирование... OK
Ошибок не произошло
Конец отчёта
Правила, инструкции, FAQ!!!
Торрент  Добавлен [26 июн 2020, 17:46] Скачать торрент Магнет ссылка
Скачать торрент
[ Размер 18.08 КБ / Просмотров 11 ]

Статус
Проверен 
 
Размер  878.04 МБ
Приватный: Нет (DHT включён)
.torrent скачан  0
 


     Отправить личное сообщение
   
Страница 1 из 1
Показать сообщения за:  Поле сортировки  
Начать новую тему Ответить на тему


Сейчас этот форум просматривают: нет зарегистрированных пользователей и гости: 0


Вы не можете начинать темы
Вы не можете отвечать на сообщения
Вы не можете редактировать свои сообщения
Вы не можете удалять свои сообщения
Вы не можете добавлять вложения

Перейти:  
cron