Начать новую тему Ответить на тему
Статистика раздачи
Размер: 442.94 МБ | Добавлен: 26 июн 2020, 20:28 | Скачали: 0
Сидеров: 0  [0 байт/сек]    Личеров: 0  [0 байт/сек]
Пред. тема | След. тема 

Автор
Сообщение

СообщениеДобавлено: 26 июн 2020, 20:28 

Ответить с цитатой 

Tumor - Welcome Back, Asshole!
Жанр: EBM, Industrial, Electro
Год выпуска диска: 2005
Производитель диска: Germany
Аудио кодек: FLAC
Тип рипа: image+.cue
Битрейт аудио: lossless
Продолжительность: 62:08
Трэклист:
1 What's It All About? 6:42
2 Keine Party 4:47
3 Sonntagsfreude 4:27
4 Arschloch 4:20
5 Raising Hell 4:49
6 Showtime 4:09
7 Killer TeKKKno 4:51
8 Jesus Christ 4:35
9 Endstation 4:49
10 Fuck You, Everybody 4:23
11 The Tumor Lied 4:21
12 Activate Your Fear 4:39
13 Endzeit 5:15
Доп. информация:
Код:
Exact Audio Copy V0.99 prebeta 4 from 23. January 2008
Отчёт EAC об извлечении, выполненном 28. октября 2009, 2:17
Tumor / Welcome back, asshole
Дисковод: MATSHITAUJ-842D   Adapter: 0  ID: 0
Режим чтения                 : Достоверность
Использование точного потока : Да
Отключение кэша аудио        : Да
Использование указателей C2  : Нет
Коррекция смещения при чтении                     : 102
Способность читать области Lead-in и Lead-out     : Нет
Заполнение пропущенных сэмплов тишиной            : Да
Удаление блоков с тишиной в начале и конце        : Нет
При вычислениях CRC использовались нулевые сэмплы : Да
Интерфейс                                         : Встроенный Win32-интерфейс для Win NT/2000
Выходной формат          : Пользовательский кодировщик
Выбранный битрейт        : 768 kBit/s
Качество                 : Высокий
Добавление ID3-тэга      : Нет
Утилита сжатия           : C:\Program Files\Exact Audio Copy\FLAC\FLAC.EXE
Дополнительные параметры : -6 -V -T "ARTIST=%a" -T "TITLE=%t" -T "ALBUM=%g" -T "DATE=%y" -T "TRACKNUMBER=%n" -T "GENRE=%m" -T "COMMENT=%e" %s -o %d
TOC извлечённого CD
     Трек |   Старт  | Длительность | Начальный сектор | Конечный сектор
    ---------------------------------------------------------------------
       1  |  0:00.00 |    6:42.21   |           0      |      30170
       2  |  6:42.21 |    4:47.38   |       30171      |      51733
       3  | 11:29.59 |    4:27.31   |       51734      |      71789
       4  | 15:57.15 |    4:19.53   |       71790      |      91267
       5  | 20:16.68 |    4:48.53   |       91268      |     112920
       6  | 25:05.46 |    4:09.28   |      112921      |     131623
       7  | 29:14.74 |    4:50.72   |      131624      |     153445
       8  | 34:05.71 |    4:34.65   |      153446      |     174060
       9  | 38:40.61 |    4:49.18   |      174061      |     195753
      10  | 43:30.04 |    4:23.12   |      195754      |     215490
      11  | 47:53.16 |    4:21.25   |      215491      |     235090
      12  | 52:14.41 |    4:38.46   |      235091      |     255986
      13  | 56:53.12 |    5:15.24   |      255987      |     279635
Характеристики диапазона извлечения и сообщения об ошибках
Выбранный диапазон
     Имя файла C:\Documents and Settings\Administrator\Desktop\P2P\Шара\Music\Tumor - Welcome back, asshole\Tumor - Welcome back, asshole.wav
     Пиковый уровень 90.5 %
     Качество диапазона 100.0 %
     CRC теста E7F5C590
     CRC копии E7F5C590
     Копирование... OK
Ошибок не произошло
Конец отчёта
Правила, инструкции, FAQ!!!
Торрент  Добавлен [26 июн 2020, 20:28] Скачать торрент Магнет ссылка
Скачать торрент
[ Размер 18.51 КБ / Просмотров 10 ]

Статус
Проверен 
 
Размер  442.94 МБ
Приватный: Нет (DHT включён)
.torrent скачан  0
 


     Отправить личное сообщение
   
Страница 1 из 1
Показать сообщения за:  Поле сортировки  
Начать новую тему Ответить на тему


Сейчас этот форум просматривают: нет зарегистрированных пользователей и гости: 0


Вы не можете начинать темы
Вы не можете отвечать на сообщения
Вы не можете редактировать свои сообщения
Вы не можете удалять свои сообщения
Вы не можете добавлять вложения

Перейти:  
cron