Начать новую тему Ответить на тему
Статистика раздачи
Размер: 603.7 МБ | Добавлен: 26 июн 2020, 19:05 | Скачали: 0
Сидеров: 0  [0 байт/сек]    Личеров: 0  [0 байт/сек]
Пред. тема | След. тема 

Автор
Сообщение

СообщениеДобавлено: 26 июн 2020, 19:05 

Ответить с цитатой 

Electro Synthetic Rebellion / Distorted Memories EP (Limited Edition, 100 copies)
Жанр: EBM, Industrial
Страна-производитель диска: France
Год издания диска: 2009
Издатель (лейбл): ESR Productions
Номер по каталогу: ESRPROD002
Страна: France
Аудио кодек: FLAC (*.flac)
Тип рипа: image+.cue
Битрейт аудио: lossless
Продолжительность: 1:13:44.44
Источник (релизер): CD из личной коллекции.
Наличие сканов в содержимом раздачи: да
Треклист:
01. Distorted Memories 5:13
02. Cyberthief (Dead Or Alive Remix) 6:25
03. Low Life 5:19
04. World Domination (Warlock Remix) 5:23
05. Extinction 5:08
06. Resurrected (H.G.I.F.T.B.A. Remix) 6:04
07. Two Thousand Years 5:15
08. Fallen Angels (S.T.A.B.L.U. Remix) 5:35
09. Distorted Memories (Dead Planet Remix) 6:53
10. New Demo 2009 3:01
11. Eighty Eight (Cover) 7:25
12. Twisted Shadows (Project - Joint Vision) 5:20
13. Low Life (Remix By Psychicold) 6:31
Discogs
Код:
Exact Audio Copy V0.99 prebeta 5 from 4. May 2009
Отчёт EAC об извлечении, выполненном 19. февраля 2011, 18:58
Electro Synthetic Rebellion / Distorted Memories (Limited Edition Extended Play)
Дисковод: TSSTcorpCDDVDW TS-L632H   Adapter: 0  ID: 0
Режим чтения                 : Достоверность
Использование точного потока : Да
Отключение кэша аудио        : Да
Использование указателей C2  : Нет
Коррекция смещения при чтении                     : 6
Способность читать области Lead-in и Lead-out     : Нет
Заполнение пропущенных сэмплов тишиной            : Да
Удаление блоков с тишиной в начале и конце        : Нет
При вычислениях CRC использовались нулевые сэмплы : Да
Интерфейс                                         : Встроенный Win32-интерфейс для Win NT/2000
Выходной формат          : Пользовательский кодировщик
Выбранный битрейт        : 1024 kBit/s
Качество                 : Высокий
Добавление ID3-тэга      : Нет
Утилита сжатия           : C:\Program Files\Exact Audio Copy\FLAC\FLAC.EXE
Дополнительные параметры : -6 -V -T "ARTIST=%a" -T "TITLE=%t" -T "ALBUM=%g" -T "DATE=%y" -T "TRACKNUMBER=%n" -T "GENRE=%m" -T "COMMENT=%e" %s -o %d
TOC извлечённого CD
     Трек |   Старт  | Длительность | Начальный сектор | Конечный сектор
    ---------------------------------------------------------------------
       1  |  0:00.00 |    5:13.62   |           0      |      23536
       2  |  5:13.62 |    6:26.68   |       23537      |      52554
       3  | 11:40.55 |    5:19.02   |       52555      |      76481
       4  | 16:59.57 |    5:23.05   |       76482      |     100711
       5  | 22:22.62 |    5:08.65   |      100712      |     123876
       6  | 27:31.52 |    6:04.56   |      123877      |     151232
       7  | 33:36.33 |    5:15.50   |      151233      |     174907
       8  | 38:52.08 |    5:35.74   |      174908      |     200106
       9  | 44:28.07 |    6:53.39   |      200107      |     231120
      10  | 51:21.46 |    3:03.01   |      231121      |     244846
      11  | 54:24.47 |    7:25.73   |      244847      |     278294
      12  | 61:50.45 |    5:22.74   |      278295      |     302518
      13  | 67:13.44 |    6:31.00   |      302519      |     331843
Характеристики диапазона извлечения и сообщения об ошибках
Выбранный диапазон
     Имя файла C:\Users\Алексей\Desktop\iPOD\Electro Synthetic Rebellion - Distorted Memories (Limited Edition Extended Play).wav
     Пиковый уровень 100.0 %
     Качество диапазона 100.0 %
     CRC теста 8B35B051
     CRC копии 8B35B051
     Копирование... OK
Ошибок не произошло
AccurateRip: сводка
Трек  1  нет в базе данных
Трек  2  нет в базе данных
Трек  3  нет в базе данных
Трек  4  нет в базе данных
Трек  5  нет в базе данных
Трек  6  нет в базе данных
Трек  7  нет в базе данных
Трек  8  нет в базе данных
Трек  9  нет в базе данных
Трек 10  нет в базе данных
Трек 11  нет в базе данных
Трек 12  нет в базе данных
Трек 13  нет в базе данных
Ни одного трека нет в базе AccurateRip
Конец отчёта
Код:
REM GENRE "EBM Industrial "
REM DATE 2009
REM DISCID 9111480D
REM COMMENT "ExactAudioCopy v0.99pb5"
PERFORMER "Electro Synthetic Rebellion"
TITLE "Distorted Memories (Limited Edition Extended Play)"
FILE "Electro Synthetic Rebellion - Distorted Memories (Limited Edition Extended Play).flac" WAVE
  TRACK 01 AUDIO
    TITLE "Distorted Memories"
    PERFORMER "Electro Synthetic Rebellion"
    FLAGS DCP
    INDEX 01 00:00:00
  TRACK 02 AUDIO
    TITLE "Cyberthief (Dead or Alive Remix)"
    PERFORMER "Electro Synthetic Rebellion"
    FLAGS DCP
    INDEX 01 05:13:62
  TRACK 03 AUDIO
    TITLE "Low Life"
    PERFORMER "Electro Synthetic Rebellion"
    FLAGS DCP
    INDEX 01 11:40:55
  TRACK 04 AUDIO
    TITLE "World Domination (Warlock Remix)"
    PERFORMER "Electro Synthetic Rebellion"
    FLAGS DCP
    INDEX 01 16:59:57
  TRACK 05 AUDIO
    TITLE "Extinction"
    PERFORMER "Electro Synthetic Rebellion"
    FLAGS DCP
    INDEX 01 22:22:62
  TRACK 06 AUDIO
    TITLE "Resurrected (H.G.I.F.T.B.A. Remix)"
    PERFORMER "Electro Synthetic Rebellion"
    FLAGS DCP
    INDEX 01 27:31:52
  TRACK 07 AUDIO
    TITLE "Two Thousand Years"
    PERFORMER "Electro Synthetic Rebellion"
    FLAGS DCP
    INDEX 01 33:36:33
  TRACK 08 AUDIO
    TITLE "Fallen Angels (S.T.A.B.L.U. Remix)"
    PERFORMER "Electro Synthetic Rebellion"
    FLAGS DCP
    INDEX 01 38:52:08
  TRACK 09 AUDIO
    TITLE "Distorted Memories (Dead Planet Remix)"
    PERFORMER "Electro Synthetic Rebellion"
    FLAGS DCP
    INDEX 01 44:28:07
  TRACK 10 AUDIO
    TITLE "New Demo 2009"
    PERFORMER "Electro Synthetic Rebellion"
    FLAGS DCP
    INDEX 01 51:21:46
  TRACK 11 AUDIO
    TITLE "Eighty Eight (Cover)"
    PERFORMER "Electro Synthetic Rebellion"
    FLAGS DCP
    INDEX 00 54:22:47
    INDEX 01 54:24:47
  TRACK 12 AUDIO
    TITLE "Joint Vision (ESR Side Project) / Twisted Shadows"
    PERFORMER "Electro Synthetic Rebellion"
    FLAGS DCP
    INDEX 01 61:50:45
  TRACK 13 AUDIO
    TITLE "Low Life (Remix by Psychicold)"
    PERFORMER "Electro Synthetic Rebellion"
    FLAGS DCP
    INDEX 00 67:11:44
    INDEX 01 67:13:44
Код:
[url=https://fastpic.ru/view/17/2011/0306/a464085a2695aa2eefab9e59f278a202.jpg.html][img]http://i17.fastpic.ru/thumb/2011/0306/02/a464085a2695aa2eefab9e59f278a202.jpeg[/img][/url][url=https://fastpic.ru/view/17/2011/0306/e2318689502c3bb435f2869f74b042e6.jpg.html][img]http://i17.fastpic.ru/thumb/2011/0306/e6/e2318689502c3bb435f2869f74b042e6.jpeg[/img][/url][url=https://fastpic.ru/view/17/2011/0306/1fde295bdd92e65d5c5f3af2eb47000c.jpg.html][img]http://i17.fastpic.ru/thumb/2011/0306/0c/1fde295bdd92e65d5c5f3af2eb47000c.jpeg[/img][/url][url=https://fastpic.ru/view/17/2011/0306/4b95b1a7fb307aaf27e9b5bfbd921da2.jpg.html][img]http://i17.fastpic.ru/thumb/2011/0306/a2/4b95b1a7fb307aaf27e9b5bfbd921da2.jpeg[/img][/url]
Выражаю благодарность kergarn`у за HQ scans!
Правила, инструкции, FAQ!!!
Торрент  Добавлен [26 июн 2020, 19:05] Скачать торрент Магнет ссылка
Скачать торрент
[ Размер 12.97 КБ / Просмотров 5 ]

Статус
Проверен 
 
Размер  603.7 МБ
Приватный: Нет (DHT включён)
.torrent скачан  0
 


     Отправить личное сообщение
   
Страница 1 из 1
Показать сообщения за:  Поле сортировки  
Начать новую тему Ответить на тему


Сейчас этот форум просматривают: нет зарегистрированных пользователей и гости: 0


Вы не можете начинать темы
Вы не можете отвечать на сообщения
Вы не можете редактировать свои сообщения
Вы не можете удалять свои сообщения
Вы не можете добавлять вложения

Перейти:  
cron