Начать новую тему Ответить на тему
Статистика раздачи
Размер: 409.77 МБ | Добавлен: 26 июн 2020, 20:20 | Скачали: 0
Сидеров: 0  [0 байт/сек]    Личеров: 0  [0 байт/сек]
Пред. тема | След. тема 

Автор
Сообщение

СообщениеДобавлено: 26 июн 2020, 20:20 

Ответить с цитатой 

Suicide Commando / Rewind (Live Vintage Set)
Жанр: EBM, Industrial, Electro
Носитель: CD
Страна-производитель диска (релиза): Germany
Год издания: 2013
Издатель (лейбл): Out Of Line
Номер по каталогу: OUT 603
Страна исполнителя (группы): Belgium
Аудиокодек: FLAC (*.flac)
Тип рипа: image+.cue
Продолжительность: 0:57:05:00
Источник: собственный рип
Наличие сканов в содержимом раздачи: нет
Треклист:
1 Murder 6:06
2 TV-Obsession 4:33
3 Traumatize 4:59
4 Sheer Horror 5:16
5 The Ultimate Machine 4:20
6 Mortal Combat 4:01
7 Where Do We Go From Here 4:20
8 Never Get Out 5:06
9 Save Me 5:43
10 Time 4:14
11 Fate 4:39
12 See You In Hell 3:48
Код:
Exact Audio Copy V1.0 beta 3 from 29. August 2011
Отчёт EAC об извлечении, выполненном 6. ноября 2019, 0:39
Suicide Commando / Rewind (Live Vintage Set)
Дисковод: TSSTcorpCDDVDW SH-224DB   Adapter: 1  ID: 0
Режим чтения                 : Достоверность
Использование точного потока : Да
Отключение кэша аудио        : Да
Использование указателей C2  : Нет
Коррекция смещения при чтении                     : 6
Способность читать области Lead-in и Lead-out     : Нет
Заполнение пропущенных сэмплов тишиной            : Да
Удаление блоков с тишиной в начале и конце        : Нет
При вычислениях CRC использовались нулевые сэмплы : Да
Интерфейс                                         : Встроенный Win32-интерфейс для Win NT/2000
Выходной формат          : Пользовательский кодировщик
Выбранный битрейт        : 128 kBit/s
Качество                 : Высокий
Добавление ID3-тега      : Нет
Утилита сжатия           : C:\Program Files (x86)\FLAC\flac.exe
Дополнительные параметры : -V -8 -T "Date=%year%" -T "Genre=%genre%" %source%
TOC извлечённого CD
     Трек |   Старт  | Длительность | Начальный сектор | Конечный сектор
    ---------------------------------------------------------------------
       1  |  0:00.00 |    6:06.30   |           0      |      27479
       2  |  6:06.30 |    4:33.27   |       27480      |      47981
       3  | 10:39.57 |    4:58.41   |       47982      |      70372
       4  | 15:38.23 |    5:15.51   |       70373      |      94048
       5  | 20:53.74 |    4:19.71   |       94049      |     113544
       6  | 25:13.70 |    4:01.30   |      113545      |     131649
       7  | 29:15.25 |    4:20.13   |      131650      |     151162
       8  | 33:35.38 |    5:06.34   |      151163      |     174146
       9  | 38:41.72 |    5:42.45   |      174147      |     199841
      10  | 44:24.42 |    4:13.63   |      199842      |     218879
      11  | 48:38.30 |    4:38.71   |      218880      |     239800
      12  | 53:17.26 |    3:47.49   |      239801      |     256874
Характеристики диапазона извлечения и сообщения об ошибках
Выбранный диапазон
     Имя файла C:\EAC\Suicide Commando ‎– Rewind (Live Vintage Set) - 2013 (CD)\Suicide Commando - Rewind (Live Vintage Set).wav
     Пиковый уровень 100.0 %
     Скорость извлечения 3.0 X
     Качество диапазона 100.0 %
     CRC теста B16FC685
     CRC копии B16FC685
     Копирование... OK
Ошибок не произошло
AccurateRip: сводка
Трек  1  : извлечено точно (доверие 4)  [EDA3DCF0]  (AR v2)
Трек  2  : извлечено точно (доверие 4)  [26A21D75]  (AR v2)
Трек  3  : извлечено точно (доверие 4)  [CD043360]  (AR v2)
Трек  4  : извлечено точно (доверие 4)  [676AEAFD]  (AR v2)
Трек  5  : извлечено точно (доверие 4)  [29E42E5A]  (AR v2)
Трек  6  : извлечено точно (доверие 4)  [B1D31138]  (AR v2)
Трек  7  : извлечено точно (доверие 4)  [4FBCF90E]  (AR v2)
Трек  8  : извлечено точно (доверие 4)  [9D3A7DA0]  (AR v2)
Трек  9  : извлечено точно (доверие 4)  [2113F69F]  (AR v2)
Трек 10  : извлечено точно (доверие 4)  [C9C58063]  (AR v2)
Трек 11  : извлечено точно (доверие 4)  [CC6CE263]  (AR v2)
Трек 12  : извлечено точно (доверие 4)  [420B688F]  (AR v2)
Все треки извлечены точно
Конец отчёта
==== Контрольная сумма отчёта EEB5961B36B53860A30808F38E0C5DC8A9A76F881186B50B8A4E2B133E922EF5 ====
Код:
REM DATE 2013
REM DISCID A30D610C
REM COMMENT "ExactAudioCopy v1.0b3"
PERFORMER "Suicide Commando"
TITLE "Rewind (Live Vintage Set)"
FILE "Suicide Commando - Rewind (Live Vintage Set).flac" WAVE
  TRACK 01 AUDIO
    TITLE "Murder"
    PERFORMER "Suicide Commando"
    INDEX 01 00:00:00
  TRACK 02 AUDIO
    TITLE "T.V.-obsession"
    PERFORMER "Suicide Commando"
    INDEX 01 06:06:30
  TRACK 03 AUDIO
    TITLE "Traumatize"
    PERFORMER "Suicide Commando"
    INDEX 01 10:39:57
  TRACK 04 AUDIO
    TITLE "Sheer Horror"
    PERFORMER "Suicide Commando"
    INDEX 01 15:38:23
  TRACK 05 AUDIO
    TITLE "The Ultimate Machine"
    PERFORMER "Suicide Commando"
    INDEX 01 20:53:74
  TRACK 06 AUDIO
    TITLE "Mortal Combat"
    PERFORMER "Suicide Commando"
    INDEX 01 25:13:70
  TRACK 07 AUDIO
    TITLE "Where Do We Go From Here ?"
    PERFORMER "Suicide Commando"
    INDEX 01 29:15:25
  TRACK 08 AUDIO
    TITLE "Never Get Out"
    PERFORMER "Suicide Commando"
    INDEX 01 33:35:38
  TRACK 09 AUDIO
    TITLE "Save Me"
    PERFORMER "Suicide Commando"
    INDEX 01 38:41:72
  TRACK 10 AUDIO
    TITLE "Time"
    PERFORMER "Suicide Commando"
    INDEX 01 44:24:42
  TRACK 11 AUDIO
    TITLE "Fate"
    PERFORMER "Suicide Commando"
    INDEX 01 48:38:30
  TRACK 12 AUDIO
    TITLE "See You In Hell"
    PERFORMER "Suicide Commando"
    INDEX 01 53:17:26
Доп. информация: Данный CD есть дополнение, третий диск к альбому When Evil Speaks, входит только в железный бокс-сет.
Правила, инструкции, FAQ!!!
Торрент  Добавлен [26 июн 2020, 20:20] Скачать торрент Магнет ссылка
Скачать торрент
[ Размер 16.75 КБ / Просмотров 8 ]

Статус
Проверен 
 
Размер  409.77 МБ
Приватный: Нет (DHT включён)
.torrent скачан  0
 


     Отправить личное сообщение
   
Страница 1 из 1
Показать сообщения за:  Поле сортировки  
Начать новую тему Ответить на тему


Сейчас этот форум просматривают: нет зарегистрированных пользователей и гости: 0


Вы не можете начинать темы
Вы не можете отвечать на сообщения
Вы не можете редактировать свои сообщения
Вы не можете удалять свои сообщения
Вы не можете добавлять вложения

Перейти:  
cron