Начать новую тему Ответить на тему
Статистика раздачи
Размер: 536.29 МБ | Добавлен: 26 июн 2020, 20:47 | Скачали: 0
Сидеров: 0  [0 байт/сек]    Личеров: 0  [0 байт/сек]
Пред. тема | След. тема 

Автор
Сообщение

СообщениеДобавлено: 26 июн 2020, 20:47 

Ответить с цитатой 

Suicide Commando - Critical Stage

Жанр: EBM, Industrial, Electro
Страна-производитель диска: Germany
Год издания диска: 1994
Издатель (лейбл): Off Beat
Номер по каталогу: SPV 084-22122
Страна: Belgium
Аудио кодек: FLAC (*.flac)
Тип рипа: image+.cue
Битрейт аудио: lossless
Продолжительность: 00:51:41
Источник (релизер): Собственный рип
Наличие сканов в содержимом раздачи: да, TIF 600dpi
01. Critical Stage 4:19
02. Sheer Horror 5:16
03. H.I.V. + 4:09
04. Traumatize 3:43
05. So Many Questions 4:28
06. Time 4:16
07. Fate 4:37
08. Necrophilia 3:49
09. Revenge 4:55
10. Where Do We Go From Here? 4:15
Voice [Voices By], Lyrics By - Dirk Ivens
11. Under God's Eye 4:54
12. The Dreamhouse (Mental Version) 2:53
Код:
Exact Audio Copy V0.99 prebeta 4 from 23. January 2008
Отчёт EAC об извлечении, выполненном 17. ноября 2010, 11:52
Suicide Commando / Critical Stage
Дисковод: PIONEER DVD-RW  DVR-212   Adapter: 3  ID: 1
Режим чтения                 : Достоверность
Использование точного потока : Да
Отключение кэша аудио        : Да
Использование указателей C2  : Нет
Коррекция смещения при чтении                     : 48
Способность читать области Lead-in и Lead-out     : Нет
Заполнение пропущенных сэмплов тишиной            : Да
Удаление блоков с тишиной в начале и конце        : Нет
При вычислениях CRC использовались нулевые сэмплы : Да
Интерфейс                                         : Встроенный Win32-интерфейс для Win NT/2000
Выходной формат          : Пользовательский кодировщик
Выбранный битрейт        : 1024 kBit/s
Качество                 : Высокий
Добавление ID3-тэга      : Нет
Утилита сжатия           : C:\Program Files (x86)\Exact Audio Copy\FLAC\FLAC.EXE
Дополнительные параметры : -8 -V -T "ARTIST=%a" -T "TITLE=%t" -T "ALBUM=%g" -T "DATE=%y" -T "TRACKNUMBER=%n" -T "GENRE=%m" -T "COMMENT=%e" %s -o %d
TOC извлечённого CD
     Трек |   Старт  | Длительность | Начальный сектор | Конечный сектор
    ---------------------------------------------------------------------
       1  |  0:00.00 |    4:19.37   |           0      |      19461
       2  |  4:19.37 |    5:16.30   |       19462      |      43191
       3  |  9:35.67 |    4:09.40   |       43192      |      61906
       4  | 13:45.32 |    3:43.23   |       61907      |      78654
       5  | 17:28.55 |    4:28.57   |       78655      |      98811
       6  | 21:57.37 |    4:16.58   |       98812      |     118069
       7  | 26:14.20 |    4:37.65   |      118070      |     138909
       8  | 30:52.10 |    3:49.32   |      138910      |     156116
       9  | 34:41.42 |    4:55.40   |      156117      |     178281
      10  | 39:37.07 |    4:15.50   |      178282      |     197456
      11  | 43:52.57 |    4:54.55   |      197457      |     219561
      12  | 48:47.37 |    2:53.38   |      219562      |     232574
Характеристики диапазона извлечения и сообщения об ошибках
Выбранный диапазон
     Имя файла D:\РАЗДАЧИ!!!!\Suicide Commando\Suicide Commando - Critical Stage - 1994\Suicide Commando - Critical Stage.wav
     Пиковый уровень 98.4 %
     Качество диапазона 100.0 %
     CRC теста 7545B0C0
     CRC копии 7545B0C0
     Копирование... OK
Ошибок не произошло
AccurateRip: сводка
Трек  1  точное извлечение (доверие 3)  [FFAB75CB]
Трек  2  точное извлечение (доверие 3)  [AC0854B9]
Трек  3  точное извлечение (доверие 3)  [42CDCCC2]
Трек  4  точное извлечение (доверие 3)  [06FD30D6]
Трек  5  точное извлечение (доверие 3)  [C63D4008]
Трек  6  точное извлечение (доверие 3)  [EAB0EB5D]
Трек  7  точное извлечение (доверие 3)  [C5724C35]
Трек  8  точное извлечение (доверие 3)  [32DDE50B]
Трек  9  точное извлечение (доверие 3)  [F145B274]
Трек 10  точное извлечение (доверие 3)  [5287152D]
Трек 11  точное извлечение (доверие 3)  [39B9E755]
Трек 12  точное извлечение (доверие 3)  [3AFCD337]
Все треки извлечены точно
Конец отчёта
Код:
 REM GENRE Electronic
REM DATE 1994
REM DISCID AF0C1D0C
REM COMMENT "ExactAudioCopy v0.99pb4"
PERFORMER "Suicide Commando"
TITLE "Critical Stage"
FILE "Suicide Commando - Critical Stage.flac" WAVE
  TRACK 01 AUDIO
    TITLE "Critical Stage"
    PERFORMER "Suicide Commando"
    INDEX 01 00:00:00
  TRACK 02 AUDIO
    TITLE "Sheer Horror"
    PERFORMER "Suicide Commando"
    INDEX 00 04:19:12
    INDEX 01 04:19:37
  TRACK 03 AUDIO
    TITLE "H.I.V. +"
    PERFORMER "Suicide Commando"
    INDEX 00 09:35:20
    INDEX 01 09:35:67
  TRACK 04 AUDIO
    TITLE "Traumatize"
    PERFORMER "Suicide Commando"
    INDEX 00 13:43:30
    INDEX 01 13:45:32
  TRACK 05 AUDIO
    TITLE "So Many Questions"
    PERFORMER "Suicide Commando"
    INDEX 00 17:27:17
    INDEX 01 17:28:55
  TRACK 06 AUDIO
    TITLE "Time"
    PERFORMER "Suicide Commando"
    INDEX 00 21:55:17
    INDEX 01 21:57:37
  TRACK 07 AUDIO
    TITLE "Fate"
    PERFORMER "Suicide Commando"
    INDEX 00 26:12:07
    INDEX 01 26:14:20
  TRACK 08 AUDIO
    TITLE "Necrophilia"
    PERFORMER "Suicide Commando"
    INDEX 00 30:49:48
    INDEX 01 30:52:10
  TRACK 09 AUDIO
    TITLE "Revenge"
    PERFORMER "Suicide Commando"
    INDEX 00 34:38:58
    INDEX 01 34:41:42
  TRACK 10 AUDIO
    TITLE "Where Do We Go from Here?"
    PERFORMER "Suicide Commando"
    INDEX 00 39:34:41
    INDEX 01 39:37:07
  TRACK 11 AUDIO
    TITLE "Under God's Eye"
    PERFORMER "Suicide Commando"
    INDEX 00 43:52:03
    INDEX 01 43:52:57
  TRACK 12 AUDIO
    TITLE "The Dreamhouse (Mental Version)"
    PERFORMER "Suicide Commando"
    INDEX 00 48:44:65
    INDEX 01 48:47:37
 
Код:
AUDIOCHECKER v2.0 beta (build 457) - by Dester - opdester@freemail.hu
~~~~~~~~~~~~~~~~~~~~~~~~~~~~~~~~~~
-=== DO NOT EDIT THIS FILE! ===-
Path: ...\Suicide Commando - Critical Stage - 1994
1 -=- Suicide Commando - Critical Stage.flac -=- CDDA (99%)
4325124
Sites: http://www.suicidecommando.be/, http://www.myspace.com/suicidecommando
Suicide Commando - Stored Images - 2002
Suicide Commando - Construct >< Destruct - 2002
Правила, инструкции, FAQ!!!
Торрент  Добавлен [26 июн 2020, 20:47] Скачать торрент Магнет ссылка
Скачать торрент
[ Размер 11.6 КБ / Просмотров 12 ]

Статус
Проверен 
 
Размер  536.29 МБ
Приватный: Нет (DHT включён)
.torrent скачан  0
 


     Отправить личное сообщение
   
Страница 1 из 1
Показать сообщения за:  Поле сортировки  
Начать новую тему Ответить на тему


Сейчас этот форум просматривают: нет зарегистрированных пользователей и гости: 0


Вы не можете начинать темы
Вы не можете отвечать на сообщения
Вы не можете редактировать свои сообщения
Вы не можете удалять свои сообщения
Вы не можете добавлять вложения

Перейти:  
cron