Начать новую тему Ответить на тему
Статистика раздачи
Размер: 345.4 МБ | Добавлен: 26 июн 2020, 17:35 | Скачали: 0
Сидеров: 0  [0 байт/сек]    Личеров: 0  [0 байт/сек]
Пред. тема | След. тема 

Автор
Сообщение

СообщениеДобавлено: 26 июн 2020, 17:35 

Ответить с цитатой 

Skorbut - Log_In (2001)
Жанр: EBM, Industrial, Electro
Год выпуска диска: 2001
Страна: Germany
Аудио кодек: FLAC
Тип рипа: image+.cue
Битрейт аудио: lossless
Продолжительность: 00:50:33

Трэклист
:

1 Log In
2 Next Step Of Evolution
3 5 Minutes Rhythm
4 Schmerzfeld
5 Gleichgewicht
6 Into The Void (Black Barcat Mix)
7 Nachtflug
8 Doc Audioactive
9 Fuel
10 Confined
11 Only Me
12 Futterneid
Код:
Exact Audio Copy V0.99 prebeta 4 from 23. January 2008
Отчёт EAC об извлечении, выполненном 15. ноября 2008, 22:59
Skorbut / Log_In
Дисковод: Optiarc DVD RW AD-5200A   Adapter: 0  ID: 0
Режим чтения                 : Достоверность
Использование точного потока : Да
Отключение кэша аудио        : Да
Использование указателей C2  : Нет
Коррекция смещения при чтении                     : 48
Способность читать области Lead-in и Lead-out     : Нет
Заполнение пропущенных сэмплов тишиной            : Да
Удаление блоков с тишиной в начале и конце        : Нет
При вычислениях CRC использовались нулевые сэмплы : Да
Интерфейс                                         : Установленный внешний ASPI-интерфейс
Выходной формат          : Пользовательский кодировщик
Выбранный битрейт        : 1024 kBit/s
Качество                 : Высокий
Добавление ID3-тэга      : Нет
Утилита сжатия           : C:\Program Files\Exact Audio Copy\FLAC\FLAC.EXE
Дополнительные параметры : -8 -V -T "ARTIST=%a" -T "TITLE=%t" -T "ALBUM=%g" -T "DATE=%y" -T "TRACKNUMBER=%n" -T "GENRE=%m" -T "COMMENT=%e" %s -o %d
TOC извлечённого CD
     Трек |   Старт  | Длительность | Начальный сектор | Конечный сектор
    ---------------------------------------------------------------------
       1  |  0:00.00 |    4:27.38   |           0      |      20062
       2  |  4:27.38 |    4:57.71   |       20063      |      42408
       3  |  9:25.34 |    5:04.16   |       42409      |      65224
       4  | 14:29.50 |    3:59.08   |       65225      |      83157
       5  | 18:28.58 |    4:33.28   |       83158      |     103660
       6  | 23:02.11 |    4:26.38   |      103661      |     123648
       7  | 27:28.49 |    4:32.62   |      123649      |     144110
       8  | 32:01.36 |    1:08.06   |      144111      |     149216
       9  | 33:09.42 |    4:54.39   |      149217      |     171305
      10  | 38:04.06 |    3:50.16   |      171306      |     188571
      11  | 41:54.22 |    4:03.12   |      188572      |     206808
      12  | 45:57.34 |    4:35.50   |      206809      |     227483
Характеристики диапазона извлечения и сообщения об ошибках
Выбранный диапазон
     Имя файла C:\Skorbut - Log_In.wav
     Пиковый уровень 100.0 %
     Качество диапазона 99.9 %
     CRC теста 1BC1235E
     CRC копии 1BC1235E
     Копирование... OK
Ошибок не произошло
Конец отчёта
Код:
AUDIOCHECKER v2.0 beta (build 457) - by Dester - opdester@freemail.hu
~~~~~~~~~~~~~~~~~~~~~~~~~~~~~~~~~~
-=== НЕ РЕДАКТИРУЙТЕ ЭТОТ ФАЙЛ! ===-
Путь: ...\(048) Skorbut - Log_In (2001)
1 -=- Skorbut - Log_In.flac -=- CDDA (100%)
1395252
Правила, инструкции, FAQ!!!
Торрент  Добавлен [26 июн 2020, 17:35] Скачать торрент Магнет ссылка
Скачать торрент
[ Размер 14.61 КБ / Просмотров 10 ]

Статус
Проверен 
 
Размер  345.4 МБ
Приватный: Нет (DHT включён)
.torrent скачан  0
 


     Отправить личное сообщение
   
Страница 1 из 1
Показать сообщения за:  Поле сортировки  
Начать новую тему Ответить на тему


Сейчас этот форум просматривают: нет зарегистрированных пользователей и гости: 0


Вы не можете начинать темы
Вы не можете отвечать на сообщения
Вы не можете редактировать свои сообщения
Вы не можете удалять свои сообщения
Вы не можете добавлять вложения

Перейти:  
cron