Начать новую тему Ответить на тему
Статистика раздачи
Размер: 440.95 МБ | Добавлен: 26 июн 2020, 21:10 | Скачали: 0
Сидеров: 0  [0 байт/сек]    Личеров: 0  [0 байт/сек]
Пред. тема | След. тема 

Автор
Сообщение

СообщениеДобавлено: 26 июн 2020, 21:10 

Ответить с цитатой 

Retractor - Edge Of Incision
Жанр: EBM / Industrial / Electro
Год выпуска диска: 2005
Производитель диска: Germany
Аудио кодек: APE
Тип рипа: image+.cue
Битрейт аудио: lossless
Продолжительность: 56:22
Трэклист:
1 Secret Core (3:55)
2 Redemption (Original Mix) (3:52)
3 The March To Stalingrad (V.2.) (4:34)
4 Psycho Vs. Killer (Original Mix) (4:56)
5 Morbid Place (Life Like Mix) (4:43) Remix - Life Like
6 Psycho Vs. Killer (Skoyz Remix) (5:15) Remix - Skoyz
7 You Don't Know (Dark Mix By Les Anges De La Nuit Remix) (4:30) Remix - Les Anges De La Nuit
8 Evolution (Backwards Remix By Controlled Collapse) (4:08) Remix - Controlled Collapse
9 Psycho Vs. Killer (Alien Produkt Mix) (5:37) Remix - Alien Produkt
10 Posessions (Dawn Of Ashes Remix) (6:04) Remix - Dawn Of Ashes
11 Psycho Vs. Killer (Electroimplant Remix) (4:32) Remix - Electro Implant
12 Harm (Virtual Embrace Remix) (4:13) Remix - Virtual Embrace
Доп. информация: Infacted Recordings; fact 3046-2
Код:
Exact Audio Copy V0.99 prebeta 3 from 28. July 2007
EAC extraction logfile from 11. January 2009, 18:22
Retractor / Edge Of Incision
Used drive  : PIONEER DVD-RW  DVR-110D   Adapter: 1  ID: 1
Read mode               : Secure
Utilize accurate stream : Yes
Defeat audio cache      : Yes
Make use of C2 pointers : No
Read offset correction                      : 48
Overread into Lead-In and Lead-Out          : No
Fill up missing offset samples with silence : Yes
Delete leading and trailing silent blocks   : No
Null samples used in CRC calculations       : Yes
Used interface                              : Native Win32 interface for Win NT & 2000
Used output format : Internal WAV Routines
Sample format      : 44.100 Hz; 16 Bit; Stereo
TOC of the extracted CD
     Track |   Start  |  Length  | Start sector | End sector
    ---------------------------------------------------------
        1  |  0:00.00 |  3:55.37 |         0    |    17661
        2  |  3:55.37 |  3:51.69 |     17662    |    35055
        3  |  7:47.31 |  4:34.10 |     35056    |    55615
        4  | 12:21.41 |  4:56.43 |     55616    |    77858
        5  | 17:18.09 |  4:42.33 |     77859    |    99041
        6  | 22:00.42 |  5:15.28 |     99042    |   122694
        7  | 27:15.70 |  4:30.40 |    122695    |   142984
        8  | 31:46.35 |  4:08.00 |    142985    |   161584
        9  | 35:54.35 |  5:37.64 |    161585    |   186923
       10  | 41:32.24 |  6:03.63 |    186924    |   214211
       11  | 47:36.12 |  4:32.34 |    214212    |   234645
       12  | 52:08.46 |  4:14.00 |    234646    |   253695
Range status and errors
Selected range
     Filename G:\MUSIC_OUT_NEW\Retractor - Edge Of Incision\CDImage.wav
     Peak level 100.0 %
     Range quality 100.0 %
     Test CRC BE6E5541
     Copy CRC BE6E5541
     Copy OK
No errors occurred
AccurateRip summary
Track  1  not present in database
Track  2  not present in database
Track  3  not present in database
Track  4  not present in database
Track  5  not present in database
Track  6  not present in database
Track  7  not present in database
Track  8  not present in database
Track  9  not present in database
Track 10  not present in database
Track 11  not present in database
Track 12  not present in database
None of the tracks are present in the AccurateRip database
End of status report
Код:
AUDIOCHECKER v2.0 beta (build 457) - by Dester - opdester@freemail.hu
~~~~~~~~~~~~~~~~~~~~~~~~~~~~~~~~~~
-=== DO NOT EDIT THIS FILE! ===-
Path: ...\Retractor - Edge Of Incision
1 -=- CDImage.wav -=- CDDA (100%)
190127764
Правила, инструкции, FAQ!!!
Торрент  Добавлен [26 июн 2020, 21:10] Скачать торрент Магнет ссылка
Скачать торрент
[ Размер 17.93 КБ / Просмотров 12 ]

Статус
Проверен 
 
Размер  440.95 МБ
Приватный: Нет (DHT включён)
.torrent скачан  0
 


     Отправить личное сообщение
   
Страница 1 из 1
Показать сообщения за:  Поле сортировки  
Начать новую тему Ответить на тему


Сейчас этот форум просматривают: нет зарегистрированных пользователей и гости: 0


Вы не можете начинать темы
Вы не можете отвечать на сообщения
Вы не можете редактировать свои сообщения
Вы не можете удалять свои сообщения
Вы не можете добавлять вложения

Перейти:  
cron