Начать новую тему Ответить на тему
Статистика раздачи
Размер: 558.11 МБ | Добавлен: 26 июн 2020, 17:25 | Скачали: 0
Сидеров: 0  [0 байт/сек]    Личеров: 0  [0 байт/сек]
Пред. тема | След. тема 

Автор
Сообщение

СообщениеДобавлено: 26 июн 2020, 17:25 

Ответить с цитатой 

Mindless Self Indulgence - Straight To Video: The Remixes

Жанр: EBM / Industrial / Electro-Punk
Год выпуска диска: 2005
Производитель диска: US
Аудио кодек: APE
Тип рипа: image+.cue
Битрейт аудио: lossless
Продолжительность: 76:25
Трэклист:
1 Straight To Video (Infrastructure W/ Punketta Doilie Mix) (5:35)
Remix - Infrastructure / Punketta Doilie
2 Straight To Video (Front Line Assembly Mix) (5:26)
Remix - Front Line Assembly
3 Straight To Video (KMFDM: Burnout Revenge Mix) (5:20)
Remix - KMFDM
4 Straight To Video (Funker Vogt Mix) (4:22)
Remix - Funker Vogt
5 Straight To Video (Mix According To CombiChrist) (4:55)
Remix - CombiChrist
6 Straight To Video (Assemblage 23 Mix) (4:06)
Remix - Assemblage 23
7 Straight To Video (Velvet Acid Christ: Loud & Tripped Up Mix) (4:25)
Remix - Velvet Acid Christ
8 Straight To Video (The Birthday Massacre: Dramaclub Mix) (4:43)
Remix - The Birthday Massacre
9 Straight To Video (Noise Unit: Don't Get Emotional Mix) (5:50)
Remix - Noise Unit
10 Straight To Video (KHZ: Death Mix) (5:39)
Remix - Pull / kHz
11 Straight To Video (Front 242: Art And Strategy Mix) (3:17)
Remix - Front 242
12 Straight To Video (Nonplus Mix) (4:43)
Remix - Bryan Robbras
13 Straight To Video (Haujobb: Mindless Myer Massacre Mix) (3:37)
Remix - Daniel Myer / Haujobb
14 Straight To Video (Bro Peezy A.K.A. Greg Poole: Video Struggle Mix) (4:27)
Remix - Bro Peezy
15 Straight To Video (P.A.L: Dub Mix) (3:43)
Remix - P.A.L
16 Straight To Video (Acapella) (3:27)
17 Straight To Video (Instrumental) (3:42)
Доп. информация: Metropolis; MET 409
Код:
Exact Audio Copy V0.99 prebeta 4 from 23. February 2008
EAC extraction logfile from 10. February 2009, 15:00
Mindless Self Indulgence / Straight To Video
Used drive  : TEAC    DV-W520GS   Adapter: 5  ID: 0
Read mode               : Secure
Utilize accurate stream : Yes
Defeat audio cache      : Yes
Make use of C2 pointers : No
Read offset correction                      : 6
Overread into Lead-In and Lead-Out          : No
Fill up missing offset samples with silence : Yes
Delete leading and trailing silent blocks   : No
Null samples used in CRC calculations       : Yes
Used interface                              : Installed external ASPI interface
Used output format : Internal WAV Routines
Sample format      : 44.100 Hz; 16 Bit; Stereo
TOC of the extracted CD
     Track |   Start  |  Length  | Start sector | End sector
    ---------------------------------------------------------
        1  |  0:00.00 |  5:35.53 |         0    |    25177
        2  |  5:35.53 |  5:26.22 |     25178    |    49649
        3  | 11:02.00 |  5:20.50 |     49650    |    73699
        4  | 16:22.50 |  4:22.68 |     73700    |    93417
        5  | 20:45.43 |  4:55.29 |     93418    |   115571
        6  | 25:40.72 |  4:05.73 |    115572    |   134019
        7  | 29:46.70 |  4:25.53 |    134020    |   153947
        8  | 34:12.48 |  3:43.58 |    153948    |   170730
        9  | 37:56.31 |  5:50.26 |    170731    |   197006
       10  | 43:46.57 |  5:39.26 |    197007    |   222457
       11  | 49:26.08 |  3:17.27 |    222458    |   237259
       12  | 52:43.35 |  4:43.17 |    237260    |   258501
       13  | 57:26.52 |  3:37.69 |    258502    |   274845
       14  | 61:04.46 |  4:27.25 |    274846    |   294895
       15  | 65:31.71 |  3:43.41 |    294896    |   311661
       16  | 69:15.37 |  3:27.46 |    311662    |   327232
       17  | 72:43.08 |  3:42.45 |    327233    |   343927
Range status and errors
Selected range
   Filename H:\Mindless Self Indulgence - Straight To Video\CDImage.wav
   Peak level 100.0 %
   Range quality 100.0 %
   Test CRC D477A82C
   Copy CRC D477A82C
   Copy OK
No errors occurred
AccurateRip summary
Track  1  accurately ripped (confidence 7)  [DA478A8F]
Track  2  accurately ripped (confidence 7)  [BBB1F803]
Track  3  accurately ripped (confidence 7)  [73CBB67A]
Track  4  accurately ripped (confidence 7)  [A10519CF]
Track  5  accurately ripped (confidence 7)  [4010BA96]
Track  6  accurately ripped (confidence 7)  [2C71674E]
Track  7  accurately ripped (confidence 7)  [2C41B5BB]
Track  8  accurately ripped (confidence 7)  [C17972BD]
Track  9  accurately ripped (confidence 7)  [93C74DB8]
Track 10  accurately ripped (confidence 7)  [25D6B273]
Track 11  accurately ripped (confidence 7)  [4EF04365]
Track 12  accurately ripped (confidence 7)  [05DB2AD3]
Track 13  accurately ripped (confidence 7)  [7363B1E6]
Track 14  accurately ripped (confidence 7)  [B393D2C1]
Track 15  accurately ripped (confidence 7)  [4D71E214]
Track 16  accurately ripped (confidence 6)  [58C7F471]
Track 17  accurately ripped (confidence 6)  [F18FDD74]
All tracks accurately ripped
End of status report
Код:
AUDIOCHECKER v2.0 beta (build 457) - by Dester - opdester@freemail.hu
~~~~~~~~~~~~~~~~~~~~~~~~~~~~~~~~~~
-=== DO NOT EDIT THIS FILE! ===-
Path: ...\Mindless Self Indulgence - Straight To Video
01 -=- CDImage.wav -=- MPEG (95%)
228546532
Программным мозгам аудиочекера что-то не нравится, поэтому смотрим на спектрограмму и делаем выводы сами.
Код:
[url=http://ipicture.ru/Gallery/Viewfull/14142409.html][img]http://pic.ipicture.ru/uploads/090228/thumbs/T91Kmzlh5j.jpg[/img][/url]
Cканы в комплекте.
Не забываем про спасибы...
Правила, инструкции, FAQ!!!
Торрент  Добавлен [26 июн 2020, 17:25] Скачать торрент Магнет ссылка
Скачать торрент
[ Размер 11.69 КБ / Просмотров 8 ]

Статус
Проверен 
 
Размер  558.11 МБ
Приватный: Нет (DHT включён)
.torrent скачан  0
 


     Отправить личное сообщение
   
Страница 1 из 1
Показать сообщения за:  Поле сортировки  
Начать новую тему Ответить на тему


Сейчас этот форум просматривают: нет зарегистрированных пользователей и гости: 0


Вы не можете начинать темы
Вы не можете отвечать на сообщения
Вы не можете редактировать свои сообщения
Вы не можете удалять свои сообщения
Вы не можете добавлять вложения

Перейти:  
cron