Начать новую тему Ответить на тему
Статистика раздачи
Размер: 409.66 МБ | Добавлен: 26 июн 2020, 16:51 | Скачали: 0
Сидеров: 0  [0 байт/сек]    Личеров: 0  [0 байт/сек]
Пред. тема | След. тема 

Автор
Сообщение

СообщениеДобавлено: 26 июн 2020, 16:51 

Ответить с цитатой 

NVMPH - Diod Man
Жанр: EBM, Industrial, Electro
Год выпуска диска: 2006
Производитель диска: Germany
Аудио кодек: FLAC
Тип рипа: image+.cue
Битрейт аудио: lossless
Продолжительность: 48:48
Треклист:
01. Part I 2:02
02. Strange 4:02
03. Last Tears 3:40
04. Testamony 4:06
05. Home 3:44
06. Part II 1:40
07. Blind 3:30
08. The Man 4:14
09. I Am 3:32
10. Part III 2:18
11. Loosing Game 3:38
12. Collision 4:02
13. Stars 4:18
14. Strange RMX 4:00
Рецензия
Код:
Exact Audio Copy V0.99 prebeta 4 from 23. January 2008
Отчёт EAC об извлечении, выполненном 24. июля 2010, 16:37
NVMPH / Diod Man
Дисковод: ASUS    DRW-24B1ST   Adapter: 0  ID: 1
Режим чтения                 : Достоверность
Использование точного потока : Да
Отключение кэша аудио        : Да
Использование указателей C2  : Нет
Коррекция смещения при чтении                     : 6
Способность читать области Lead-in и Lead-out     : Нет
Заполнение пропущенных сэмплов тишиной            : Да
Удаление блоков с тишиной в начале и конце        : Нет
При вычислениях CRC использовались нулевые сэмплы : Да
Интерфейс                                         : Встроенный Win32-интерфейс для Win NT/2000
Выходной формат          : Пользовательский кодировщик
Выбранный битрейт        : 1024 kBit/s
Качество                 : Высокий
Добавление ID3-тэга      : Нет
Утилита сжатия           : C:\Program Files\Exact Audio Copy\Flac\flac.exe
Дополнительные параметры : -8 -V -T "ARTIST=%a" -T "TITLE=%t" -T "ALBUM=%g" -T "DATE=%y" -T "TRACKNUMBER=%n" -T "GENRE=%m" -T "COMMENT=EAC FLAC -8" %s
TOC извлечённого CD
     Трек |   Старт  | Длительность | Начальный сектор | Конечный сектор
    ---------------------------------------------------------------------
       1  |  0:00.00 |    2:02.00   |           0      |       9149
       2  |  2:02.00 |    4:02.00   |        9150      |      27299
       3  |  6:04.00 |    3:40.00   |       27300      |      43799
       4  |  9:44.00 |    4:06.28   |       43800      |      62277
       5  | 13:50.28 |    3:44.00   |       62278      |      79077
       6  | 17:34.28 |    1:40.00   |       79078      |      86577
       7  | 19:14.28 |    3:30.71   |       86578      |     102398
       8  | 22:45.24 |    4:14.00   |      102399      |     121448
       9  | 26:59.24 |    3:32.16   |      121449      |     137364
      10  | 30:31.40 |    2:18.00   |      137365      |     147714
      11  | 32:49.40 |    3:38.00   |      147715      |     164064
      12  | 36:27.40 |    4:02.62   |      164065      |     182276
      13  | 40:30.27 |    4:18.00   |      182277      |     201626
      14  | 44:48.27 |    3:59.64   |      201627      |     219615
Характеристики диапазона извлечения и сообщения об ошибках
Выбранный диапазон
     Имя файла D:\EAC\NVMPH - Diod Man\NVMPH - Diod Man.wav
     Пиковый уровень 99.9 %
     Качество диапазона 100.0 %
     CRC копии 29A8CD9C
     Копирование... OK
Ошибок не произошло
Конец отчёта
AUDIOCHECKER v1.2 - by Dester - opdester@freemail.hu
~~~~~~~~~~~~~~~~~
1 -===- D:\EAC\NVMPH - Diod Man\NVMPH - Diod Man.flac
Extracted successfully
Conclusion: This track looks like CDDA with probability 100%
Источник: CD-R
Правила, инструкции, FAQ!!!
Торрент  Добавлен [26 июн 2020, 16:51] Скачать торрент Магнет ссылка
Скачать торрент
[ Размер 16.62 КБ / Просмотров 3 ]

Статус
Проверен 
 
Размер  409.66 МБ
Приватный: Нет (DHT включён)
.torrent скачан  0
 


     Отправить личное сообщение
   
Страница 1 из 1
Показать сообщения за:  Поле сортировки  
Начать новую тему Ответить на тему


Сейчас этот форум просматривают: нет зарегистрированных пользователей и гости: 0


Вы не можете начинать темы
Вы не можете отвечать на сообщения
Вы не можете редактировать свои сообщения
Вы не можете удалять свои сообщения
Вы не можете добавлять вложения

Перейти:  
cron