Начать новую тему Ответить на тему
Статистика раздачи
Размер: 506.17 МБ | Добавлен: 26 июн 2020, 17:11 | Скачали: 0
Сидеров: 0  [0 байт/сек]    Личеров: 0  [0 байт/сек]
Пред. тема | След. тема 

Автор
Сообщение

СообщениеДобавлено: 26 июн 2020, 17:11 

Ответить с цитатой 

Mortal Void / One Frame Left
Жанр: EBM, Industrial, Electro
Страна-производитель диска: Germany
Год издания диска: 2007
Издатель (лейбл): Codeline Records
Номер по каталогу: CDL 007
Страна: Germany
Аудиокодек: FLAC (*.flac)
Тип рипа: image+.cue
Битрейт аудио: lossless
Продолжительность: 1:00:12.52
Источник (релизер): CD из личной коллекции.
Наличие сканов в содержимом раздачи: да
Треклист:
01. Contagion 5:32
02. Disease: Emotion 4:39
03. Rotting Away 4:23
04. Downwards 5:14
05. Imitation 4:45
06. Human Bomb 3:48
07. Hollow/Shallow 4:40
08. Era Of Destruction 3:41
09. Ghosts 4:28
10. Spit At You 3:29
11. Another Breakdown 4:09
12. Come To Me (Needlewire RMX) 6:18
13. Disease: Emotion (Steve Graeber Remix) 4:25
Discogs
Код:
Exact Audio Copy V1.0 beta 3 from 29. August 2011
Отчёт EAC об извлечении, выполненном 22. января 2012, 11:55
Mortal Void / One Frame Left
Дисковод: PIONEER DVD-RW  DVR-XD10   Adapter: 1  ID: 0
Режим чтения                 : Достоверность
Использование точного потока : Да
Отключение кэша аудио        : Да
Использование указателей C2  : Нет
Коррекция смещения при чтении                     : 96
Способность читать области Lead-in и Lead-out     : Нет
Заполнение пропущенных сэмплов тишиной            : Да
Удаление блоков с тишиной в начале и конце        : Нет
При вычислениях CRC использовались нулевые сэмплы : Да
Интерфейс                                         : Встроенный Win32-интерфейс для Win NT/2000
Выходной формат          : Пользовательский кодировщик
Выбранный битрейт        : 1024 kBit/s
Качество                 : Высокий
Добавление ID3-тега      : Нет
Утилита сжатия           : C:\Program Files\Exact Audio Copy\FLAC\FLAC.EXE
Дополнительные параметры : -6 -V -T "ARTIST=%artist%" -T "TITLE=%title%" -T "ALBUM=%albumtitle%" -T "DATE=%year%" -T "TRACKNUMBER=%tracknr%" -T "GENRE=%genre%" -T "COMMENT=%comment%" -T "BAND=%albuminterpret%" -T "ALBUMARTIST=%albuminterpret%" -T "COMPOSER=%composer%" %haslyrics%--tag-from-file=LYRICS="%lyricsfile%"%haslyrics% -T "DISCNUMBER=%cdnumber%" -T "TOTALDISCS=%totalcds%" -T "TOTALTRACKS=%numtracks%" %hascover%--picture="%coverfile%"%hascover% %source% -o %dest%
TOC извлечённого CD
     Трек |   Старт  | Длительность | Начальный сектор | Конечный сектор
    ---------------------------------------------------------------------
       1  |  0:00.00 |    5:34.66   |           0      |      25115
       2  |  5:34.66 |    4:45.63   |       25116      |      46553
       3  | 10:20.54 |    4:26.66   |       46554      |      66569
       4  | 14:47.45 |    5:14.61   |       66570      |      90180
       5  | 20:02.31 |    4:47.24   |       90181      |     111729
       6  | 24:49.55 |    3:51.44   |      111730      |     129098
       7  | 28:41.24 |    4:45.07   |      129099      |     150480
       8  | 33:26.31 |    3:47.10   |      150481      |     167515
       9  | 37:13.41 |    4:27.19   |      167516      |     187559
      10  | 41:40.60 |    3:32.20   |      187560      |     203479
      11  | 45:13.05 |    4:13.11   |      203480      |     222465
      12  | 49:26.16 |    6:17.38   |      222466      |     250778
      13  | 55:43.54 |    4:28.73   |      250779      |     270951
Характеристики диапазона извлечения и сообщения об ошибках
Выбранный диапазон
     Имя файла C:\Users\Алексей\Desktop\iPOD\Mortal Void - One Frame Left.wav
     Пиковый уровень 99.8 %
     Скорость извлечения 4.2 X
     Качество диапазона 100.0 %
     CRC теста 422DAC4E
     CRC копии 422DAC4E
     Копирование... OK
Ошибок не произошло
AccurateRip: сводка
Трек  1  отсутствует в базе данных
Трек  2  отсутствует в базе данных
Трек  3  отсутствует в базе данных
Трек  4  отсутствует в базе данных
Трек  5  отсутствует в базе данных
Трек  6  отсутствует в базе данных
Трек  7  отсутствует в базе данных
Трек  8  отсутствует в базе данных
Трек  9  отсутствует в базе данных
Трек 10  отсутствует в базе данных
Трек 11  отсутствует в базе данных
Трек 12  отсутствует в базе данных
Трек 13  отсутствует в базе данных
Ни одного трека нет в базе AccurateRip
Конец отчёта
==== Контрольная сумма отчёта 8FEC95C25F6BBF34521375AE2993965D06C359A09E2AE7D37E173D5C42AA67D2 ====
Код:
REM GENRE "EBM Industrial"
REM DATE 2007
REM DISCID AA0E1C0D
REM COMMENT "ExactAudioCopy v1.0b3"
PERFORMER "Mortal Void"
TITLE "One Frame Left"
FILE "Mortal Void - One Frame Left.flac" WAVE
  TRACK 01 AUDIO
    TITLE "Contagion"
    PERFORMER "Mortal Void"
    FLAGS DCP
    INDEX 01 00:00:00
  TRACK 02 AUDIO
    TITLE "Disease Emotion"
    PERFORMER "Mortal Void"
    FLAGS DCP
    INDEX 00 05:32:66
    INDEX 01 05:34:66
  TRACK 03 AUDIO
    TITLE "Rotting Away"
    PERFORMER "Mortal Void"
    FLAGS DCP
    INDEX 00 10:18:54
    INDEX 01 10:20:54
  TRACK 04 AUDIO
    TITLE "Downwards"
    PERFORMER "Mortal Void"
    FLAGS DCP
    INDEX 00 14:45:45
    INDEX 01 14:47:45
  TRACK 05 AUDIO
    TITLE "Imitation"
    PERFORMER "Mortal Void"
    FLAGS DCP
    INDEX 00 20:00:31
    INDEX 01 20:02:31
  TRACK 06 AUDIO
    TITLE "Human Bomb"
    PERFORMER "Mortal Void"
    FLAGS DCP
    INDEX 00 24:47:55
    INDEX 01 24:49:55
  TRACK 07 AUDIO
    TITLE "Hollow Shallow"
    PERFORMER "Mortal Void"
    FLAGS DCP
    INDEX 00 28:39:24
    INDEX 01 28:41:24
  TRACK 08 AUDIO
    TITLE "Era Of Destruction"
    PERFORMER "Mortal Void"
    FLAGS DCP
    INDEX 00 33:24:31
    INDEX 01 33:26:31
  TRACK 09 AUDIO
    TITLE "Ghosts"
    PERFORMER "Mortal Void"
    FLAGS DCP
    INDEX 00 37:11:41
    INDEX 01 37:13:41
  TRACK 10 AUDIO
    TITLE "Spit At You"
    PERFORMER "Mortal Void"
    FLAGS DCP
    INDEX 00 41:38:60
    INDEX 01 41:40:60
  TRACK 11 AUDIO
    TITLE "Another Breakdown"
    PERFORMER "Mortal Void"
    FLAGS DCP
    INDEX 00 45:11:05
    INDEX 01 45:13:05
  TRACK 12 AUDIO
    TITLE "Come To Me (Needlewire Remix)"
    PERFORMER "Mortal Void"
    FLAGS DCP
    INDEX 00 49:24:16
    INDEX 01 49:26:16
  TRACK 13 AUDIO
    TITLE "Disease Emotion (Remix By Sg Of Solitary Experiments)"
    PERFORMER "Mortal Void"
    FLAGS DCP
    INDEX 00 55:41:54
    INDEX 01 55:43:54
Код:
[url=https://fastpic.ru/view/28/2012/0211/0521f4c575f7d7a4400e95916f79214d.jpg.html][img]http://i28.fastpic.ru/thumb/2012/0211/4d/0521f4c575f7d7a4400e95916f79214d.jpeg[/img][/url][url=https://fastpic.ru/view/29/2012/0211/2bfb7020f4df1e8c758c89866a26faf0.jpg.html][img]http://i29.fastpic.ru/thumb/2012/0211/f0/2bfb7020f4df1e8c758c89866a26faf0.jpeg[/img][/url][url=https://fastpic.ru/view/32/2012/0211/bd9eee2d7415cfcdc2df5b9b0efceeb1.jpg.html][img]http://i32.fastpic.ru/thumb/2012/0211/b1/bd9eee2d7415cfcdc2df5b9b0efceeb1.jpeg[/img][/url][url=https://fastpic.ru/view/28/2012/0211/a7c66f18251471def5eb0e4702eae726.jpg.html][img]http://i28.fastpic.ru/thumb/2012/0211/26/a7c66f18251471def5eb0e4702eae726.jpeg[/img][/url]
Правила, инструкции, FAQ!!!
Торрент  Добавлен [26 июн 2020, 17:11] Скачать торрент Магнет ссылка
Скачать торрент
[ Размер 20.89 КБ / Просмотров 2 ]

Статус
Проверен 
 
Размер  506.17 МБ
Приватный: Нет (DHT включён)
.torrent скачан  0
 


     Отправить личное сообщение
   
Страница 1 из 1
Показать сообщения за:  Поле сортировки  
Начать новую тему Ответить на тему


Сейчас этот форум просматривают: нет зарегистрированных пользователей и гости: 0


Вы не можете начинать темы
Вы не можете отвечать на сообщения
Вы не можете редактировать свои сообщения
Вы не можете удалять свои сообщения
Вы не можете добавлять вложения

Перейти:  
cron