Начать новую тему Ответить на тему
Статистика раздачи
Размер: 434.04 МБ | Добавлен: 26 июн 2020, 20:44 | Скачали: 0
Сидеров: 0  [0 байт/сек]    Личеров: 0  [0 байт/сек]
Пред. тема | След. тема 

Автор
Сообщение

СообщениеДобавлено: 26 июн 2020, 20:44 

Ответить с цитатой 

Liquid G / Biohazard And Medical Waste
Жанр: EBM, Industrial, Electro
Страна-производитель диска: Italy
Год издания диска: 2011
Издатель (лейбл): EK Product
Номер по каталогу: EKPCD006
Страна: Belgium
Аудиокодек: FLAC (*.flac)
Тип рипа: image+.cue
Битрейт аудио: lossless
Продолжительность: 0:56:15.71
Источник (релизер): CD из личной коллекции.
Наличие сканов в содержимом раздачи: да
Треклист:
01. Industrial Flow 2:15
02. Shoot! 3:21
03. The State Of Garbage 4:43
04. She Bitch (Extended Version) 3:49
05. Black Paradise 3:21
06. Don't Need This Shit (Liquid G feat. Intens) 3:43
07. Mess 2:54
08. Animal Experiments 3:50
09. Biohazard & Medical Waste 2:58
10. Touch Me 3:37
11. Battle For Control (EK-remake) 2:59
12. Terrorist Hunting 4:13
13. Black Liquid (EK-remake) 3:52
14. Evil (v7remix) 4:07
15. Harsh (Pleasure-mix) 4:29
16. Ellen's Song 2:02
Discogs
Код:
Exact Audio Copy V0.99 prebeta 5 from 4. May 2009
Отчёт EAC об извлечении, выполненном 27. октября 2011, 10:19
Liquid G / Biohazard And Madical Waste
Дисковод: TSSTcorpCDDVDW TS-L632H   Adapter: 0  ID: 0
Режим чтения                 : Достоверность
Использование точного потока : Да
Отключение кэша аудио        : Да
Использование указателей C2  : Нет
Коррекция смещения при чтении                     : 6
Способность читать области Lead-in и Lead-out     : Нет
Заполнение пропущенных сэмплов тишиной            : Да
Удаление блоков с тишиной в начале и конце        : Нет
При вычислениях CRC использовались нулевые сэмплы : Да
Интерфейс                                         : Встроенный Win32-интерфейс для Win NT/2000
Выходной формат          : Пользовательский кодировщик
Выбранный битрейт        : 1024 kBit/s
Качество                 : Высокий
Добавление ID3-тэга      : Нет
Утилита сжатия           : C:\Program Files\Exact Audio Copy\FLAC\FLAC.EXE
Дополнительные параметры : -6 -V -T "ARTIST=%a" -T "TITLE=%t" -T "ALBUM=%g" -T "DATE=%y" -T "TRACKNUMBER=%n" -T "GENRE=%m" -T "COMMENT=%e" %s -o %d
TOC извлечённого CD
     Трек |   Старт  | Длительность | Начальный сектор | Конечный сектор
    ---------------------------------------------------------------------
       1  |  0:00.00 |    2:15.42   |           0      |      10166
       2  |  2:15.42 |    3:20.64   |       10167      |      25230
       3  |  5:36.31 |    4:43.53   |       25231      |      46508
       4  | 10:20.09 |    3:48.68   |       46509      |      63676
       5  | 14:09.02 |    3:20.64   |       63677      |      78740
       6  | 17:29.66 |    3:43.66   |       78741      |      95531
       7  | 21:13.57 |    2:53.69   |       95532      |     108575
       8  | 24:07.51 |    3:50.36   |      108576      |     125861
       9  | 27:58.12 |    2:58.36   |      125862      |     139247
      10  | 30:56.48 |    3:36.46   |      139248      |     155493
      11  | 34:33.19 |    2:59.04   |      155494      |     168922
      12  | 37:32.23 |    4:13.42   |      168923      |     187939
      13  | 41:45.65 |    3:51.62   |      187940      |     205326
      14  | 45:37.52 |    4:07.10   |      205327      |     223861
      15  | 49:44.62 |    4:29.00   |      223862      |     244036
      16  | 54:13.62 |    2:02.09   |      244037      |     253195
Характеристики диапазона извлечения и сообщения об ошибках
Выбранный диапазон
     Имя файла C:\Users\Алексей\Desktop\iPOD\Liquid G - Biohazard And Madical Waste.wav
     Пиковый уровень 96.6 %
     Качество диапазона 100.0 %
     CRC теста 6F8CF835
     CRC копии 6F8CF835
     Копирование... OK
Ошибок не произошло
AccurateRip: сводка
Трек  1  нет в базе данных
Трек  2  нет в базе данных
Трек  3  нет в базе данных
Трек  4  нет в базе данных
Трек  5  нет в базе данных
Трек  6  нет в базе данных
Трек  7  нет в базе данных
Трек  8  нет в базе данных
Трек  9  нет в базе данных
Трек 10  нет в базе данных
Трек 11  нет в базе данных
Трек 12  нет в базе данных
Трек 13  нет в базе данных
Трек 14  нет в базе данных
Трек 15  нет в базе данных
Трек 16  нет в базе данных
Ни одного трека нет в базе AccurateRip
Конец отчёта
Код:
REM GENRE Industrial
REM DATE 2011
REM DISCID E60D2F10
REM COMMENT "ExactAudioCopy v0.99pb5"
PERFORMER "Liquid G"
TITLE "Biohazard And Madical Waste"
FILE "Liquid G - Biohazard And Madical Waste.flac" WAVE
  TRACK 01 AUDIO
    TITLE "Industrial Flow"
    PERFORMER "Liquid G"
    FLAGS DCP
    INDEX 01 00:00:00
  TRACK 02 AUDIO
    TITLE "Shoot!"
    PERFORMER "Liquid G"
    FLAGS DCP
    INDEX 00 02:13:42
    INDEX 01 02:15:42
  TRACK 03 AUDIO
    TITLE "The State Of Garbage part 1"
    PERFORMER "Liquid G"
    FLAGS DCP
    INDEX 00 05:34:31
    INDEX 01 05:36:31
  TRACK 04 AUDIO
    TITLE "She Bitch (Extended Version)"
    PERFORMER "Liquid G"
    FLAGS DCP
    INDEX 00 10:18:09
    INDEX 01 10:20:09
  TRACK 05 AUDIO
    TITLE "Black Paradise"
    PERFORMER "Liquid G"
    FLAGS DCP
    INDEX 00 14:07:02
    INDEX 01 14:09:02
  TRACK 06 AUDIO
    TITLE "Don't Need This Shit (Liquid G. feat. Intens)"
    PERFORMER "Liquid G"
    FLAGS DCP
    INDEX 00 17:27:66
    INDEX 01 17:29:66
  TRACK 07 AUDIO
    TITLE "Mess"
    PERFORMER "Liquid G"
    FLAGS DCP
    INDEX 00 21:11:57
    INDEX 01 21:13:57
  TRACK 08 AUDIO
    TITLE "Animal Experiments"
    PERFORMER "Liquid G"
    FLAGS DCP
    INDEX 00 24:05:51
    INDEX 01 24:07:51
  TRACK 09 AUDIO
    TITLE "Biohazard And Medical Waste"
    PERFORMER "Liquid G"
    FLAGS DCP
    INDEX 00 27:56:12
    INDEX 01 27:58:12
  TRACK 10 AUDIO
    TITLE "Touch Me"
    PERFORMER "Liquid G"
    FLAGS DCP
    INDEX 00 30:54:48
    INDEX 01 30:56:48
  TRACK 11 AUDIO
    TITLE "Battle For Control (EK Remake)"
    PERFORMER "Liquid G"
    FLAGS DCP
    INDEX 00 34:31:19
    INDEX 01 34:33:19
  TRACK 12 AUDIO
    TITLE "Terrorist Hunting"
    PERFORMER "Liquid G"
    FLAGS DCP
    INDEX 00 37:30:23
    INDEX 01 37:32:23
  TRACK 13 AUDIO
    TITLE "Black Liquid (EK Remake)"
    PERFORMER "Liquid G"
    FLAGS DCP
    INDEX 00 41:43:65
    INDEX 01 41:45:65
  TRACK 14 AUDIO
    TITLE "Evil (v7 Remix)"
    PERFORMER "Liquid G"
    FLAGS DCP
    INDEX 00 45:35:52
    INDEX 01 45:37:52
  TRACK 15 AUDIO
    TITLE "Harsh (Pleasure Mix)"
    PERFORMER "Liquid G"
    FLAGS DCP
    INDEX 00 49:42:62
    INDEX 01 49:44:62
  TRACK 16 AUDIO
    TITLE "Ellen's Song"
    PERFORMER "Liquid G"
    FLAGS DCP
    INDEX 00 54:11:62
    INDEX 01 54:13:62
Код:
[url=https://fastpic.ru/view/27/2012/0104/bea6a4a5ebabf5750522a30757814430.jpg.html][img]http://i27.fastpic.ru/thumb/2012/0104/30/bea6a4a5ebabf5750522a30757814430.jpeg[/img][/url][url=https://fastpic.ru/view/32/2012/0104/7c49946a752204cd0af03b64144b37c1.jpg.html][img]http://i32.fastpic.ru/thumb/2012/0104/c1/7c49946a752204cd0af03b64144b37c1.jpeg[/img][/url][url=https://fastpic.ru/view/28/2012/0104/b97c2c85843080d78d84fc0917f86f8f.jpg.html][img]http://i28.fastpic.ru/thumb/2012/0104/8f/b97c2c85843080d78d84fc0917f86f8f.jpeg[/img][/url][url=https://fastpic.ru/view/27/2012/0104/e70042ecbd3d9a0010c2e3fd577f3bf9.jpg.html][img]http://i27.fastpic.ru/thumb/2012/0104/f9/e70042ecbd3d9a0010c2e3fd577f3bf9.jpeg[/img][/url]
Правила, инструкции, FAQ!!!
Торрент  Добавлен [26 июн 2020, 20:44] Скачать торрент Магнет ссылка
Скачать торрент
[ Размер 18.08 КБ / Просмотров 7 ]

Статус
Проверен 
 
Размер  434.04 МБ
Приватный: Нет (DHT включён)
.torrent скачан  0
 


     Отправить личное сообщение
   
Страница 1 из 1
Показать сообщения за:  Поле сортировки  
Начать новую тему Ответить на тему


Сейчас этот форум просматривают: нет зарегистрированных пользователей и гости: 0


Вы не можете начинать темы
Вы не можете отвечать на сообщения
Вы не можете редактировать свои сообщения
Вы не можете удалять свои сообщения
Вы не можете добавлять вложения

Перейти:  
cron