Начать новую тему Ответить на тему
Статистика раздачи
Размер: 461.72 МБ | Добавлен: 26 июн 2020, 19:53 | Скачали: 0
Сидеров: 0  [0 байт/сек]    Личеров: 0  [0 байт/сек]
Пред. тема | След. тема 

Автор
Сообщение

СообщениеДобавлено: 26 июн 2020, 19:53 

Ответить с цитатой 

Lassigue Bendthaus - Matter [Remaster 1993]
Жанр: EBM, Industrial, Electro
Страна-производитель диска: Austria
Год издания: 1993 [1991]
Издатель (лейбл): KK Records
Номер по каталогу: kk113 / 390 1113 2
Страна: Germany
Аудиокодек: FLAC (*.flac)
Тип рипа: tracks+.cue
Битрейт аудио: lossless
Продолжительность: 01:12:45
Источник (релизер): Собственный диск
Наличие сканов в содержимом раздачи: да
Об исполнителе: hyperreal.org, mixmag.info
Треклист:
Код:
[b]01. Automotive             (6:55)
02. Circulat (Hertz)       (7:35)
03. Transitory             (7:40)
04. Lanternslide           (6:16)
05. Mortal/Immortal        (4:27)
06. Rotation Mecanique     (4:10)
07. Velocity Life          (4:09)
08. Static                 (4:19)
09. Inured (Pink Elln Mix) (4:50)
10. Relate                 (4:50)
11. Statique (Flows)       (7:03)
12. Velocity Life (Hz)     (4:09)
13. Automotive (2nd Edit)  (6:22)[/b]

Код:
Exact Audio Copy V1.0 beta 3 from 29. August 2011
EAC extraction logfile from 9. December 2012, 13:04
Lassigue Bendthaus / Matter
Used drive  : Optiarc DVD RW AD-7560S   Adapter: 0  ID: 1
Read mode               : Secure
Utilize accurate stream : Yes
Defeat audio cache      : Yes
Make use of C2 pointers : No
Read offset correction                      : 6
Overread into Lead-In and Lead-Out          : No
Fill up missing offset samples with silence : Yes
Delete leading and trailing silent blocks   : No
Null samples used in CRC calculations       : Yes
Used interface                              : Native Win32 interface for Win NT & 2000
Gap handling                                : Appended to previous track
Used output format              : User Defined Encoder
Selected bitrate                : 1024 kBit/s
Quality                         : High
Add ID3 tag                     : Yes
Command line compressor         : D:\Exact Audio Copy\Flac\flac.exe
Additional command line options : -8 -V -T "ARTIST=%artist%" -T "TITLE=%title%" -T "ALBUM=%albumtitle%" -T "DATE=%year%" -T "TRACKNUMBER=%tracknr%" -T "GENRE=%genre%" -T "COMMENT=%comment%" -T "BAND=%albuminterpret%" -T "ALBUMARTIST=%albuminterpret%" -T "COMPOSER=%composer%" %haslyrics%--tag-from-file=LYRICS="%lyricsfile%"%haslyrics% -T "DISCNUMBER=%cdnumber%" -T "TOTALDISCS=%totalcds%" -T "TOTALTRACKS=%numtracks%" %hascover%--picture="%coverfile%"%hascover% %source% -o %dest%
TOC of the extracted CD
     Track |   Start  |  Length  | Start sector | End sector
    ---------------------------------------------------------
        1  |  0:00.50 |  6:55.05 |        50    |    31179
        2  |  6:55.55 |  7:35.32 |     31180    |    65336
        3  | 14:31.12 |  7:40.63 |     65337    |    99899
        4  | 22:12.00 |  6:16.45 |     99900    |   128144
        5  | 28:28.45 |  4:27.00 |    128145    |   148169
        6  | 32:55.45 |  4:10.57 |    148170    |   166976
        7  | 37:06.27 |  4:09.03 |    166977    |   185654
        8  | 41:15.30 |  4:19.27 |    185655    |   205106
        9  | 45:34.57 |  4:50.18 |    205107    |   226874
       10  | 50:25.00 |  4:50.70 |    226875    |   248694
       11  | 55:15.70 |  7:03.72 |    248695    |   280491
       12  | 62:19.67 |  4:09.33 |    280492    |   299199
       13  | 66:29.25 |  6:22.65 |    299200    |   327914
Track  1
     Filename E:\- Music\01 - Automotive.wav
     Pre-gap length  0:00:02.50
     Peak level 72.2 %
     Extraction speed 3.3 X
     Track quality 100.0 %
     Test CRC 57DA2E55
     Copy CRC 57DA2E55
     Accurately ripped (confidence 2)  [BD0AC178]  (AR v1)
     Copy OK
Track  2
     Filename E:\- Music\02 - Circulat (Hertz).wav
     Pre-gap length  0:00:01.25
     Peak level 71.7 %
     Extraction speed 3.8 X
     Track quality 100.0 %
     Test CRC AA0031BF
     Copy CRC AA0031BF
     Accurately ripped (confidence 2)  [D52CC080]  (AR v1)
     Copy OK
Track  3
     Filename E:\- Music\03 - Transitory.wav
     Peak level 76.1 %
     Extraction speed 4.3 X
     Track quality 100.0 %
     Test CRC 572C67A3
     Copy CRC 572C67A3
     Accurately ripped (confidence 2)  [40F6057B]  (AR v1)
     Copy OK
Track  4
     Filename E:\- Music\04 - Lanternslide.wav
     Pre-gap length  0:00:01.30
     Peak level 75.6 %
     Extraction speed 4.6 X
     Track quality 100.0 %
     Test CRC 5AED49A7
     Copy CRC 5AED49A7
     Accurately ripped (confidence 2)  [AEA01CD5]  (AR v1)
     Copy OK
Track  5
     Filename E:\- Music\05 - Mortal,Immortal.wav
     Peak level 74.1 %
     Extraction speed 4.6 X
     Track quality 100.0 %
     Test CRC A57CF33C
     Copy CRC A57CF33C
     Accurately ripped (confidence 2)  [CB5E7A08]  (AR v1)
     Copy OK
Track  6
     Filename E:\- Music\06 - Rotation Mecanique.wav
     Pre-gap length  0:00:00.30
     Peak level 71.8 %
     Extraction speed 4.8 X
     Track quality 100.0 %
     Test CRC FA63E14F
     Copy CRC FA63E14F
     Accurately ripped (confidence 2)  [E4F4EE34]  (AR v1)
     Copy OK
Track  7
     Filename E:\- Music\07 - Velocity Life.wav
     Peak level 78.4 %
     Extraction speed 5.0 X
     Track quality 100.0 %
     Test CRC A42474EA
     Copy CRC A42474EA
     Accurately ripped (confidence 2)  [5C019BA5]  (AR v1)
     Copy OK
Track  8
     Filename E:\- Music\08 - Static.wav
     Peak level 77.6 %
     Extraction speed 5.1 X
     Track quality 100.0 %
     Test CRC 9402CD0C
     Copy CRC 9402CD0C
     Accurately ripped (confidence 2)  [D76F199A]  (AR v1)
     Copy OK
Track  9
     Filename E:\- Music\09 - Inured (Pink Elln Mix).wav
     Pre-gap length  0:00:02.07
     Peak level 75.5 %
     Extraction speed 5.4 X
     Track quality 100.0 %
     Test CRC B48166D4
     Copy CRC B48166D4
     Cannot be verified as accurate (confidence 10)  [C7C3C889], AccurateRip returned [4A764FB9]  (AR v2)
     Copy OK
Track 10
     Filename E:\- Music\10 - Relate.wav
     Pre-gap length  0:00:00.58
     Peak level 78.9 %
     Extraction speed 5.6 X
     Track quality 100.0 %
     Test CRC 47398050
     Copy CRC 47398050
     Accurately ripped (confidence 2)  [2324B3A1]  (AR v1)
     Copy OK
Track 11
     Filename E:\- Music\11 - Statique (Flows).wav
     Pre-gap length  0:00:02.05
     Peak level 74.3 %
     Extraction speed 5.3 X
     Track quality 99.9 %
     Test CRC 56646226
     Copy CRC 56646226
     Accurately ripped (confidence 2)  [FD53ABB8]  (AR v1)
     Copy OK
Track 12
     Filename E:\- Music\12 - Velocity Life (Hz).wav
     Pre-gap length  0:00:01.10
     Peak level 88.0 %
     Extraction speed 5.9 X
     Track quality 100.0 %
     Test CRC 8A25BCB3
     Copy CRC 8A25BCB3
     Accurately ripped (confidence 2)  [FE6AF69D]  (AR v1)
     Copy OK
Track 13
     Filename E:\- Music\13 - Automotive (2nd Edit).wav
     Pre-gap length  0:00:01.25
     Peak level 76.2 %
     Extraction speed 5.5 X
     Track quality 99.9 %
     Test CRC 17B239DE
     Copy CRC 17B239DE
     Cannot be verified as accurate (confidence 10)  [405956F2], AccurateRip returned [7000DC58]  (AR v2)
     Copy OK
11 трек(и) скопированы точно
 2 трек(и) не удалось проверить на точность
Some tracks could not be verified as accurate
No errors occurred
End of status report
==== Log checksum 877E2B987B2563B5084263381DD51AF264540A6A32158DCF564A07A0423805F8 ====
Код:
REM GENRE Electronic
REM DATE 1991
REM DISCID BF11140D
REM COMMENT "ExactAudioCopy v1.0b3"
PERFORMER "Lassigue Bendthaus"
TITLE "Matter"
FILE "01 - Automotive.wav" WAVE
  TRACK 01 AUDIO
    TITLE "Automotive"
    PERFORMER "Lassigue Bendthaus"
    PREGAP 00:00:50
    INDEX 01 00:00:00
  TRACK 02 AUDIO
    TITLE "Circulat (Hertz)"
    PERFORMER "Lassigue Bendthaus"
    INDEX 00 06:53:55
FILE "02 - Circulat (Hertz).wav" WAVE
    INDEX 01 00:00:00
FILE "03 - Transitory.wav" WAVE
  TRACK 03 AUDIO
    TITLE "Transitory"
    PERFORMER "Lassigue Bendthaus"
    INDEX 01 00:00:00
  TRACK 04 AUDIO
    TITLE "Lanternslide"
    PERFORMER "Lassigue Bendthaus"
    INDEX 00 07:39:33
FILE "04 - Lanternslide.wav" WAVE
    INDEX 01 00:00:00
FILE "05 - Mortal-Immortal.wav" WAVE
  TRACK 05 AUDIO
    TITLE "Mortal/Immortal"
    PERFORMER "Lassigue Bendthaus"
    INDEX 01 00:00:00
  TRACK 06 AUDIO
    TITLE "Rotation Mecanique"
    PERFORMER "Lassigue Bendthaus"
    INDEX 00 04:26:45
FILE "06 - Rotation Mecanique.wav" WAVE
    INDEX 01 00:00:00
FILE "07 - Velocity Life.wav" WAVE
  TRACK 07 AUDIO
    TITLE "Velocity Life"
    PERFORMER "Lassigue Bendthaus"
    INDEX 01 00:00:00
FILE "08 - Static.wav" WAVE
  TRACK 08 AUDIO
    TITLE "Static"
    PERFORMER "Lassigue Bendthaus"
    INDEX 01 00:00:00
  TRACK 09 AUDIO
    TITLE "Inured (Pink Elln Mix)"
    PERFORMER "Lassigue Bendthaus"
    INDEX 00 04:17:20
FILE "09 - Inured (Pink Elln Mix).wav" WAVE
    INDEX 01 00:00:00
  TRACK 10 AUDIO
    TITLE "Relate"
    PERFORMER "Lassigue Bendthaus"
    INDEX 00 04:49:35
FILE "10 - Relate.wav" WAVE
    INDEX 01 00:00:00
  TRACK 11 AUDIO
    TITLE "Statique (Flows)"
    PERFORMER "Lassigue Bendthaus"
    INDEX 00 04:48:65
FILE "11 - Statique (Flows).wav" WAVE
    INDEX 01 00:00:00
  TRACK 12 AUDIO
    TITLE "Velocity Life (Hz)"
    PERFORMER "Lassigue Bendthaus"
    INDEX 00 07:02:62
FILE "12 - Velocity Life (Hz).wav" WAVE
    INDEX 01 00:00:00
  TRACK 13 AUDIO
    TITLE "Automotive (2nd Edit)"
    PERFORMER "Lassigue Bendthaus"
    INDEX 00 04:08:08
FILE "13 - Automotive (2nd Edit).wav" WAVE
    INDEX 01 00:00:00
Код:
-----------------------
DON'T MODIFY THIS FILE
-----------------------
PERFORMER: auCDtect Task Manager, ver. 1.5.1RC6 build 1.5.1.7
Copyright (c) 2008-2010 y-soft. All rights reserved
[url=http://y-soft.org]http://y-soft.org[/url]
ANALYZER: auCDtect: CD records authenticity detector, version 0.8.2
Copyright (c) 2004 Oleg Berngardt. All rights reserved.
Copyright (c) 2004 Alexander Djourik. All rights reserved.
FILE: 01 - Automotive.flac
  Size: 42051169 Hash: BA706E7F5B19872937B493DD8EF25056 Accuracy: -m0
  Conclusion: CDDA 100%
  Signature: 1693FE4359D3C0E3619989CEBE056948EC3E854C
FILE: 02 - Circulat (Hertz).flac
  Size: 44697357 Hash: 1E1F56C5ED3BE4E6689661E2A59BDDB8 Accuracy: -m0
  Conclusion: CDDA 99%
  Signature: 1677603FB2EC07A7B6417740AD8C3C38CEE347AC
FILE: 03 - Transitory.flac
  Size: 35732572 Hash: 1AE0CCA696A4431EC14FA87BFF0AE9B1 Accuracy: -m0
  Conclusion: CDDA 100%
  Signature: 17CF174474F22E604BFB8E477898C1F80743687C
FILE: 04 - Lanternslide.flac
  Size: 34604147 Hash: 85F4977269CBA64F8B6D5BEE20246C1D Accuracy: -m0
  Conclusion: CDDA 100%
  Signature: CC7CCD0D1C23961338F270A5986BFFE943E405AD
FILE: 05 - Mortal-Immortal.flac
  Size: 24042127 Hash: 7C7FE41210FDDF4802F0A504A5A09596 Accuracy: -m0
  Conclusion: CDDA 100%
  Signature: 65EDFA34E4DC84EBC17F8E2C11A53A742B4F2CBE
FILE: 06 - Rotation Mecanique.flac
  Size: 20059003 Hash: 0CC18021EB138092DDA8E9E3D219679D Accuracy: -m0
  Conclusion: CDDA 100%
  Signature: 1D1E9843123A0D04715A7527BB495F9BDC2C3BC5
FILE: 07 - Velocity Life.flac
  Size: 23678041 Hash: F6FF89FB7D1A599DC1BBE888E1B342A1 Accuracy: -m0
  Conclusion: CDDA 100%
  Signature: 05C70E48BA1A2F9235C40523E468C1A97435DCBC
FILE: 08 - Static.flac
  Size: 22007511 Hash: A2E4241F31DED7903756B2F6C4101D8F Accuracy: -m0
  Conclusion: CDDA 100%
  Signature: F840A843DA6BB9791B06D69CFE322BD53ECD36B6
FILE: 09 - Inured (Pink Elln Mix).flac
  Size: 25217740 Hash: CC765EC6CF2DE113F817D53D833FDFC7 Accuracy: -m0
  Conclusion: CDDA 100%
  Signature: 66DF1C65B8340139012D0222778CC121FB3B809C
FILE: 10 - Relate.flac
  Size: 17676721 Hash: 67090ED6DCEE89E272666405D3C5EEB1 Accuracy: -m0
  Conclusion: CDDA 100%
  Signature: 4138305AA10BBE8F0072075C2C2CBF3A1C4FAE56
FILE: 11 - Statique (Flows).flac
  Size: 40560975 Hash: FE381D86C882C59DAE586089D6037EF4 Accuracy: -m0
  Conclusion: CDDA 100%
  Signature: 4E54C59D978900562E48E52A3F756AAEAC5E0186
FILE: 12 - Velocity Life (Hz).flac
  Size: 22583935 Hash: D04E14DFE13AD0295112746EF5AF9762 Accuracy: -m0
  Conclusion: CDDA 99%
  Signature: 26D4B33A04C876554633A257D0C0D40254508796
FILE: 13 - Automotive (2nd Edit).flac
  Size: 40260902 Hash: CB64E92C0A30082A9CF8E927C95DA046 Accuracy: -m0
  Conclusion: CDDA 99%
  Signature: AD000FB80332F03BC31A394B5342A4659857FA56
Ремастированное издание альбома 1991 года с тремя добавленными треками (с 11 по 13) с 12-дюймовок "Automotif" и "Hertz".
Lassigue Bendthaus - один из более чем 50-ти (да-да, это не опечатка) проектов немецкого электронщика Уве Шмидта (Uwe Schmidt). Можно считать этот проект началом карьеры Уве, пик деятельности которого пришёлся как раз на девяностые. Вот же шило у мужика в заднице: играл бы что-нибудь в одном стиле, так не-е-ет - "хочу всего и помногу"! Обилие псевдонимов как раз обусловлено разнообразием музыки - в своей основе она всегда электронная, но стилистически весьма различна - от почти чисто индустриального раннего Lassigue Bendthaus до такой трудноописуемой штуки, как Senor Coconut. Своего сайта Уве, как я понимаю, не имеет, но в сети можно нарыть достаточно много информации о нём (те, кто с этим парнем незнаком, могут начать с приведённой выше ссылки на mixmag.info - там по-русски).
Правила, инструкции, FAQ!!!
Торрент  Добавлен [26 июн 2020, 19:53] Скачать торрент Магнет ссылка
Скачать торрент
[ Размер 19.63 КБ / Просмотров 9 ]

Статус
Проверен 
 
Размер  461.72 МБ
Приватный: Нет (DHT включён)
.torrent скачан  0
 


     Отправить личное сообщение
   
Страница 1 из 1
Показать сообщения за:  Поле сортировки  
Начать новую тему Ответить на тему


Сейчас этот форум просматривают: нет зарегистрированных пользователей и гости: 0


Вы не можете начинать темы
Вы не можете отвечать на сообщения
Вы не можете редактировать свои сообщения
Вы не можете удалять свои сообщения
Вы не можете добавлять вложения

Перейти:  
cron