Начать новую тему Ответить на тему
Статистика раздачи
Размер: 429.33 МБ | Добавлен: 26 июн 2020, 17:13 | Скачали: 0
Сидеров: 0  [0 байт/сек]    Личеров: 0  [0 байт/сек]
Пред. тема | След. тема 

Автор
Сообщение

СообщениеДобавлено: 26 июн 2020, 17:13 

Ответить с цитатой 

Informatik / Direct Memory Access V2.0
#777
Жанр: EBM, Industrial, Electro
Страна-производитель диска: US
Год издания: 1997
Издатель (лейбл): Metropolis
Номер по каталогу: MET 030
Формат: CD, Album, Enhanced
Аудиокодек: FLAC (*.flac)
Тип рипа: image+.cue
Битрейт аудио: lossless
Продолжительность: 0:47:19.65
Источник (релизер): Физический носитель (Собственный рип с оригинала)
Наличие сканов в содержимом раздачи: да (600dpi)
Треклист:
01. Human Nature [5:07]
02. Autonomous [4:38]
03. At Your Command [4:56]
04. Peril Eyes [4:01]
05. I Confess (Repentance Mix) [4:23]
06. Immigrant Song [3:27]
07. Silicon [5:03]
08. Violation [4:39]
09. Autonomous (Nothing Is Real Mix) [6:02]
10. I Confess (I Wanted To Pray Mix) [5:06]
+ Video: At Your Command [4:52]
Код:
Exact Audio Copy V1.0 beta 3 from 29. August 2011
EAC extraction logfile from 24. July 2012, 23:13
Informatik / Direct Memory Access v2.0
Used drive  : PLEXTOR BDDVDR PX-B320SA   Adapter: 6  ID: 1
Read mode               : Secure
Utilize accurate stream : Yes
Defeat audio cache      : Yes
Make use of C2 pointers : No
Read offset correction                      : 6
Overread into Lead-In and Lead-Out          : No
Fill up missing offset samples with silence : Yes
Delete leading and trailing silent blocks   : No
Null samples used in CRC calculations       : Yes
Used interface                              : Installed external ASPI interface
Used output format              : User Defined Encoder
Selected bitrate                : 128 kBit/s
Quality                         : High
Add ID3 tag                     : No
Command line compressor         : C:\Program Files (x86)\FLAC\flac.exe
Additional command line options : -V -8 -T "Date=%year%" -T "Genre=%genre%" %source%
TOC of the extracted CD
     Track |   Start  |  Length  | Start sector | End sector
    ---------------------------------------------------------
        1  |  0:00.00 |  5:07.19 |         0    |    23043
        2  |  5:07.19 |  4:37.35 |     23044    |    43853
        3  |  9:44.54 |  4:55.38 |     43854    |    66016
        4  | 14:40.17 |  4:00.54 |     66017    |    84070
        5  | 18:40.71 |  4:23.16 |     84071    |   103811
        6  | 23:04.12 |  3:26.44 |    103812    |   119305
        7  | 26:30.56 |  5:03.21 |    119306    |   142051
        8  | 31:34.02 |  4:38.46 |    142052    |   162947
        9  | 36:12.48 |  6:01.31 |    162948    |   190053
       10  | 42:14.04 |  5:05.61 |    190054    |   212989
       11  | 49:51.65 |  5:42.64 |    224390    |   250103
Range status and errors
Selected range
     Filename D:\Informatik - Direct Memory Access V2.0 (1997)\Informatik - Direct Memory Access v2.0.wav
     Peak level 97.7 %
     Extraction speed 7.2 X
     Range quality 100.0 %
     Test CRC 2D7E2EAD
     Copy CRC 2D7E2EAD
     Copy OK
No errors occurred
AccurateRip summary
Track  1  accurately ripped (confidence 3)  [D9A396C1]  (AR v1)
Track  2  accurately ripped (confidence 3)  [4E80DCED]  (AR v1)
Track  3  accurately ripped (confidence 3)  [11D20FD3]  (AR v1)
Track  4  accurately ripped (confidence 3)  [80B67F41]  (AR v1)
Track  5  accurately ripped (confidence 3)  [6460B23C]  (AR v1)
Track  6  accurately ripped (confidence 3)  [E0758EB5]  (AR v1)
Track  7  accurately ripped (confidence 3)  [2456A327]  (AR v1)
Track  8  accurately ripped (confidence 3)  [5549E87C]  (AR v1)
Track  9  accurately ripped (confidence 3)  [CCA31ABB]  (AR v1)
Track 10  accurately ripped (confidence 3)  [1921DF07]  (AR v1)
All tracks accurately ripped
End of status report
==== Log checksum 5566C91A3B57CB153BACD78982AFA7BC1598FBDE4FA3F4220C96B7724A0ED809 ====
Код:
General
Complete name                            : F:\At Your Command.mpg
Format                                   : MPEG-PS
File size                                : 49.8 MiB
Video
ID                                       : 224 (0xE0)
Format                                   : MPEG Video
Format version                           : Version 1
Format settings, BVOP                    : Yes
Format settings, Matrix                  : Default
Maximum bit rate                         : 1 151 Kbps
Width                                    : 352 pixels
Height                                   : 288 pixels
Display aspect ratio                     : 1.086
Frame rate                               : 29.970 fps
Standard                                 : PAL
Color space                              : YUV
Bit depth                                : 8 bits
Scan type                                : Progressive
Compression mode                         : Lossy
Audio #1
ID                                       : 192 (0xC0)
Format                                   : MPEG Audio
Format version                           : Version 1
Format profile                           : Layer 2
Bit rate mode                            : Constant
Bit rate                                 : 224 Kbps
Channel(s)                               : 2 channels
Sampling rate                            : 44.1 KHz
Compression mode                         : Lossy
Всё мультимедийное содержимое данного издания помещено в папку Extra.
На оригинале, согласно ТОС, дата-трек находится в конце диска.
Правила, инструкции, FAQ!!!
Торрент  Добавлен [26 июн 2020, 17:13] Скачать торрент Магнет ссылка
Скачать торрент
[ Размер 17.83 КБ / Просмотров 4 ]

Статус
Проверен 
 
Размер  429.33 МБ
Приватный: Нет (DHT включён)
.torrent скачан  0
 


     Отправить личное сообщение
   
Страница 1 из 1
Показать сообщения за:  Поле сортировки  
Начать новую тему Ответить на тему


Сейчас этот форум просматривают: нет зарегистрированных пользователей и гости: 0


Вы не можете начинать темы
Вы не можете отвечать на сообщения
Вы не можете редактировать свои сообщения
Вы не можете удалять свои сообщения
Вы не можете добавлять вложения

Перейти:  
cron